<?xml version="1.0" standalone="no"?>
<!DOCTYPE svg PUBLIC "-//W3C//DTD SVG 1.1//EN" "http://www.w3.org/Graphics/SVG/1.1/DTD/svg11.dtd" >
<svg xmlns="http://www.w3.org/2000/svg">
<metadata>Generated by IcoMoon</metadata>
<defs>
<font id="monosocial" horiz-adv-x="1024">
<font-face units-per-em="1024" ascent="960" descent="-64" />
<missing-glyph horiz-adv-x="1024" />
<glyph unicode="&#x20;" horiz-adv-x="512" d="" />
<glyph unicode="&#xe900;" glyph-name="roundedstackoverflow" horiz-adv-x="850" d="M634 858q43 0 81-16.5t66.5-45 45-66.5 16.5-81v-418q0-43-16.5-81.5t-45-67-66.5-45-81-16.5h-419q-43 0-81 16.5t-66.5 45-45 67-16.5 81.5v418q0 43 16.5 81t45 66.5 66.5 45 81 16.5h419zM392 562l163-132 33 40-163 132zM333 451l188-92 23 47-188 92zM299 330l204-47 12 51-204 47zM294 204h209v53h-209v-53zM608 414h-53v-236h-313v236h-53v-288h419v288zM645 523l-128 165-41-32 128-165zM713 561l-88 190-47-22 88-190z" />
<glyph unicode="&#xe901;" glyph-name="roundedfivehundredpx" horiz-adv-x="850" d="M634 858q43 0 81-16.5t66.5-45 45-66.5 16.5-81v-418q0-43-16.5-81.5t-45-67-66.5-45-81-16.5h-419q-43 0-81 16.5t-66.5 45-45 67-16.5 81.5v418q0 43 16.5 81t45 66.5 66.5 45 81 16.5h419zM605 309q44 0 62.5 27.5t18.5 63.5q0 37-18.5 64t-62.5 27q-23 0-40-9.5t-29-20.5q-14-13-24-30-10 17-23 30-11 11-28.5 20.5t-41.5 9.5-39-8.5-23-18.5q-10-12-14-27-5 13-15 24-8 9-21.5 16.5t-33.5 7.5q-13 0-22.5-3t-16.5-6q-8-4-13-9l12 55h104v49h-139l-29-146h52q4 7 10 12 5 5 12.5 8.5t18.5 3.5q22 0 31.5-15t9.5-34q0-18-15-33t-32-15q-14 0-21.5 5.5t-12.5 12.5q-5 8-7 18h-52q4-22 15-40 9-15 26-27t46-12 46.5 7.5 28.5 16.5q12 11 18 25 4-14 14-25 8-9 23-16.5t39-7.5 41.5 8 28.5 19q13 12 23 28 10-16 24-28 12-11 29-19t40-8zM599 443q22 0 34-12t12-31q0-18-12-30t-34-12q-11 0-21.5 6.5t-18.5 14.5q-10 9-18 21 8 11 18 21 8 8 18.5 15t21.5 7zM425 443q11 0 21.5-7t18.5-15q10-10 18-21-8-12-18-21-8-8-18.5-14.5t-21.5-6.5q-23 0-35 12t-12 30q0 19 12 31t35 12z" />
<glyph unicode="&#xe902;" glyph-name="circlestackoverflow" horiz-adv-x="850" d="M425 858q87 0 163-33t132.5-89.5 89.5-132.5 33-163-33-163-89.5-133-132.5-90-163-33-163 33-133 90-90 133-33 163 33 163 90 132.5 133 89.5 163 33zM392 562l163-132 33 40-163 132zM333 451l188-92 23 47-188 92zM299 330l204-47 12 51-204 47zM294 204h209v53h-209v-53zM608 414h-53v-236h-313v236h-53v-288h419v288zM645 523l-128 165-41-32 128-165zM713 561l-88 190-47-22 88-190z" />
<glyph unicode="&#xe903;" glyph-name="circlefivehundredpx" horiz-adv-x="850" d="M598 445q22 0 34-12t12-31q0-18-12-30t-34-12q-11 0-21.5 6.5t-18.5 14.5q-10 9-18 21 8 11 18 21 8 8 18.5 15t21.5 7zM423 445q11 0 21.5-7t18.5-15q10-10 18-21-8-12-18-21-8-8-18.5-14.5t-21.5-6.5q-22 0-34 12t-12 30q0 19 12 31t34 12zM424 860q87 0 163.5-33t133.5-90 90-133 33-163-33-163.5-90-133.5-133.5-90-163.5-33-163 33-133 90-90 133.5-33 163.5 33 163 90 133 133 90 163 33zM605 310q44 0 62.5 27t18.5 64-19 64.5-62 27.5q-22 0-39-10t-29-21q-14-13-25-30-10 17-23 30-11 11-29 21t-42 10-39-8.5-23-19.5q-10-12-13-27-6 13-16 24-8 9-21 16.5t-33 7.5q-14 0-23.5-3t-16.5-6q-8-4-13-9l12 55h105v49h-140l-29-147h52q4 7 10 12 5 5 12.5 9t18.5 4q22 0 31.5-15.5t9.5-33.5-14.5-33.5-32.5-15.5q-14 0-21 5.5t-12 12.5q-5 8-7 19h-53q4-22 15-40 9-15 26.5-27t46.5-12q28 0 46 7.5t29 16.5q12 11 18 24 3-13 13-24 8-9 23-16.5t39-7.5 42 8 29 19q13 12 23 28 11-16 25-28 12-11 29-19t39-8z" />
<glyph unicode="&#xe904;" glyph-name="roundedfoodspotting" horiz-adv-x="850" d="M634 858q43 0 81-16.5t66.5-45 45-66.5 16.5-81v-418q0-43-16.5-81.5t-45-67-66.5-45-81-16.5h-419q-43 0-81 16.5t-66.5 45-45 67-16.5 81.5v418q0 43 16.5 81t45 66.5 66.5 45 81 16.5h419zM189 388h53v261h-53v-261zM296 335h-96v-154h29v65h58v27h-58v36h67v26zM402 195q15 16 15 42 0 25-15 42-15 16-37 16-16 0-27-7-13-8-19-21-6-14-6-29 0-19 6-32t19-21q16-7 27-7 22 0 37 17zM521 195q14 17 14 42t-14 42q-15 16-38 16-16 0-27-7-12-8-18-21-7-16-7-29 0-10 2-17.5t5-14.5q6-13 19-21 14-7 26-7 23 0 38 17zM649 335h-27v-55q-12 15-29 15-19 0-31-15-12-14-12-43t13-43q12-16 29-16 9 0 17 5 8 4 15 14v-16h25v154zM660 597q0 21-15.5 36.5t-36.5 15.5h-53l-26 52h-104l-27-52h-52q-22 0-37-15.5t-15-36.5v-157q0-22 15-37t37-15h262q21 0 36.5 15t15.5 37v157zM483 271q10 0 18-9 7-8 7-25 0-18-7-26-8-9-18-9-11 0-17 9-7 8-7 26 0 17 7 25 6 9 17 9zM365 271q9 0 17-9 7-8 7-25 0-18-7-26-8-9-17-9-11 0-18 9-7 8-7 26 0 17 7 25 7 9 18 9zM600 273q10 0 16-9t6-28q0-17-6-26-8-8-16-8-12 0-18 11-5 10-5 26t7 25q6 9 16 9zM477 623q22 0 41-8.5t33-22.5 22-33 8-41q0-44-30-74t-74-30q-22 0-41 8t-33.5 22-22.5 33-8 41 8 41 22.5 33 33.5 22.5 41 8.5zM477 466q22 0 37 15t15 37-15 37.5-37 15.5-37-15.5-15-37.5 15-37 37-15z" />
<glyph unicode="&#xe905;" glyph-name="roundedappstorealt" horiz-adv-x="850" d="M425 675q48 0 91-18.5t75-50.5 50.5-74.5 18.5-91.5-18.5-92-50.5-75-75-50.5-91-18.5q-49 0-92 18.5t-75 50.5-50.5 75-18.5 92 18.5 91.5 50.5 74.5 75 50.5 92 18.5zM555 414h-78v183h-105v-183h-78l131-131zM634 858q43 0 81-16.5t66.5-45 45-66.5 16.5-81v-418q0-43-16.5-81.5t-45-67-66.5-45-81-16.5h-419q-43 0-81 16.5t-66.5 45-45 67-16.5 81.5v418q0 43 16.5 81t45 66.5 66.5 45 81 16.5h419zM425 178q54 0 101.5 20.5t83 56 56 83.5 20.5 102-20.5 101.5-56 83-83 56-101.5 20.5-102-20.5-83.5-56-56-83-20.5-101.5 20.5-102 56-83.5 83.5-56 102-20.5z" />
<glyph unicode="&#xe906;" glyph-name="roundedfriendsfeed" horiz-adv-x="850" d="M634 858q43 0 81-16.5t66.5-45 45-66.5 16.5-81v-418q0-43-16.5-81.5t-45-67-66.5-45-81-16.5h-419q-43 0-81 16.5t-66.5 45-45 67-16.5 81.5v418q0 43 16.5 81t45 66.5 66.5 45 81 16.5h419zM617 622h-69q-27 0-49.5-15t-36.5-38v53h-69q-21 0-39.5-9t-32.5-25-22-36.5-8-44.5v-45h-76v-76h76v-183h76v183h79v-183h76v183h76v76h-76v45q0 17 8.5 27.5t17.5 10.5h69v77zM452 545q-6-18-6-38v-45h-79v45q0 17 8.5 27.5t17.5 10.5h59z" />
<glyph unicode="&#xe907;" glyph-name="circlefoodspotting" horiz-adv-x="850" d="M600 274q8 0 16-9 6-9 6-28 0-18-7-26-6-8-15-8-12 0-18 11-5 10-5 26 0 18 7 25 6 9 16 9zM477 624q21 0 40-8.5t33.5-22.5 22.5-33 8-41-8-41-22.5-33-33.5-22-40-8q-22 0-41 8t-33.5 22-22.5 33-8 41 8 41 22.5 33 33.5 22.5 41 8.5zM477 467q22 0 37 15t15 37-15 37.5-37 15.5-37.5-15.5-15.5-37.5 15.5-37 37.5-15zM424 859q87 0 163-33t133-89.5 90-132.5 33-163-33-163-90-133-133-90-163-33-163 33-132.5 90-89.5 133-33 163 33 163 89.5 132.5 132.5 89.5 163 33zM189 389h52v261h-52v-261zM296 336h-96v-154h28v65h58v27h-58v36h68v26zM402 196q14 15 14 42t-14 42q-15 16-38 16-16 0-27-7-12-8-18-21-7-16-7-29 0-16 7-32 6-13 19-21 14-7 27-7 22 0 37 17zM520 196q15 16 15 42 0 25-15 42-13 16-37 16-16 0-27-7-12-8-18-21-7-13-7-29 0-19 7-32 6-14 19-21 14-7 26-7 23 0 37 17zM648 336h-26v-55q-12 15-29 15-19 0-31-15-12-14-12-43 0-28 12-43 14-16 30-16 9 0 17 5 8 4 15 14v-16h24v154zM660 598q0 21-15.5 36.5t-37.5 15.5h-52l-26 52h-105l-26-52h-52q-22 0-37-15.5t-15-36.5v-157q0-22 15-37t37-15h261q22 0 37.5 15t15.5 37v157zM364 272q10 0 18-9 7-8 7-25 0-18-7-26-8-9-18-9t-17 9q-7 8-7 26 0 17 7 25 7 9 17 9zM483 272q10 0 18-9 7-11 7-25 0-16-7-26-8-9-18-9-11 0-17 9-8 10-8 26 0 15 8 25 6 9 17 9z" />
<glyph unicode="&#xe908;" glyph-name="roundedgrooveshark" horiz-adv-x="850" d="M634 858q43 0 81-16.5t66.5-45 45-66.5 16.5-81v-418q0-43-16.5-81.5t-45-67-66.5-45-81-16.5h-419q-43 0-81 16.5t-66.5 45-45 67-16.5 81.5v418q0 43 16.5 81t45 66.5 66.5 45 81 16.5h419zM425 178q54 0 101.5 20.5t83 56 56 83.5 20.5 102-20.5 101.5-56 83-83 56-101.5 20.5-102-20.5-83.5-56-56-83-20.5-101.5 20.5-102 56-83.5 83.5-56 102-20.5zM425 675q48 0 91-18.5t75-50.5 50.5-74.5 18.5-91.5q0-29-7-56.5t-20-51.5q-18 12-35.5 33.5t-33 43.5-28 41.5-19.5 27.5q-38 42-75.5 70t-92.5 44q-1-29 0-57.5t-1.5-55-11.5-50-29-41.5q-9-8-22-14t-27-10-28-5.5-26-0.5q-7 20-11 40t-4 42q0 49 18.5 91.5t50.5 74.5 75 50.5 92 18.5z" />
<glyph unicode="&#xe909;" glyph-name="roundedphotobucket" horiz-adv-x="850" d="M511 571q32-22 51-56t19-75q0-42-19-76t-51-55q-6-5-18-10-1-1-1.5-1t-1.5-1q-5-2-9.5-3.5t-9.5-3.5h-1q-11-4-19-5h-5q-5-2-10.5-2h-22t-10.5 2h-5q-8 1-19 5h-1q-5 2-9.5 3.5t-9.5 3.5q-1 1-1.5 1t-1.5 1q-8 4-18 10-32 21-51 55t-19 76q0 41 19 75t51 56q5 2 9 4.5t9 5.5q1 0 1.5 0.5t1.5 0.5q10 5 19 8h1q5 2 9.5 2.5t9.5 1.5q2 1 5 1 5 1 10.5 1.5t11.5 0.5q5 0 10.5-0.5t10.5-1.5q3 0 5-1 5-1 9.5-1.5t9.5-2.5h1q9-3 19-8 1 0 1.5-0.5t1.5-0.5q5-3 9.5-5.5t8.5-4.5zM555 440q0 27-10 51t-28 41.5-41.5 28-50.5 10.5v-27q21 0 40-8t33.5-22 22.5-33 8-41h26zM634 858q43 0 81-16.5t66.5-45 45-66.5 16.5-81v-418q0-43-16.5-81.5t-45-67-66.5-45-81-16.5h-419q-43 0-81 16.5t-66.5 45-45 67-16.5 81.5v418q0 43 16.5 81t45 66.5 66.5 45 81 16.5h419zM686 571q0 11-7.5 18.5t-18.5 7.5h-142q-20 12-43.5 19t-49.5 7-50-7-44-19h-37q0 11-7.5 18.5t-18.5 7.5h-53q-11 0-18.5-7.5t-7.5-18.5q-11 0-18.5-7.5t-7.5-18.5v-262q0-11 7.5-18.5t18.5-7.5h142q41-26 94-26 52 0 93 26h142q11 0 18.5 7.5t7.5 18.5v262zM297 571q-26-26-40.5-59.5t-14.5-71.5 14.5-72 40.5-59h-108v262h108zM634 571h26v-262h-108q26 25 41 59t15 72-15 71.5-41 59.5h82z" />
<glyph unicode="&#xe90a;" glyph-name="roundeddesignfloat" horiz-adv-x="850" d="M634 858q43 0 81-16.5t66.5-45 45-66.5 16.5-81v-418q0-43-16.5-81.5t-45-67-66.5-45-81-16.5h-419q-43 0-81 16.5t-66.5 45-45 67-16.5 81.5v418q0 43 16.5 81t45 66.5 66.5 45 81 16.5h419zM425 204q48 0 91 18.5t75 50.5 50.5 75 18.5 92-18.5 91.5-50.5 74.5-75 50.5-91 18.5q-49 0-92-18.5t-75-50.5-50.5-74.5-18.5-91.5 18.5-92 50.5-75 75-50.5 92-18.5zM425 523q35 0 59-24t24-59-24-59.5-59-24.5q-18 0-33 6.5t-26.5 18-18 27-6.5 32.5 6.5 32 18 26.5 26.5 18 33 6.5zM425 652q43 0 81.5-16.5t67.5-45.5 45.5-67.5 16.5-82.5-16.5-82.5-45.5-67.5-67.5-45.5-81.5-16.5q-44 0-82.5 16.5t-67.5 45.5-45.5 67.5-16.5 82.5 16.5 82.5 45.5 67.5 67.5 45.5 82.5 16.5zM372 619q-59-13-86.5-54t-39.5-99h51q11 39 33 64.5t42 36.5v52zM372 313q-10 5-21 10t-21 12.5-19 20-14 32.5h-51q6-30 15.5-51t24.5-36 36-24.5 50-15.5v52zM317 440q0-22 8.5-41.5t23-34 34-23 42.5-8.5q22 0 41.5 8.5t34 23 23 34 8.5 41.5-8.5 41.5-23 34-34 23-41.5 8.5q-23 0-42.5-8.5t-34-23-23-34-8.5-41.5zM451 261q29 6 54.5 15.5t45 24.5 33.5 36 20 51h-52q-5-20-14.5-32.5t-22-20-29-12.5-35.5-10v-52zM604 466q-13 59-53.5 99.5t-99.5 53.5v-52q80-21 101-101h52z" />
<glyph unicode="&#xe90b;" glyph-name="roundedstumbleupon" horiz-adv-x="850" d="M634 858q43 0 81-16.5t66.5-45 45-66.5 16.5-81v-418q0-43-16.5-81.5t-45-67-66.5-45-81-16.5h-419q-43 0-81 16.5t-66.5 45-45 67-16.5 81.5v418q0 43 16.5 81t45 66.5 66.5 45 81 16.5h419zM686 623h-78v-262q-2-6-10.5-15t-13.5-11h-34q-5 1-12.5 9t-8.5 13v121q0 10-3 26t-13.5 31-30.5 25.5-54 10.5h-146q-19 0-35-9.5t-27.5-24-18-31.5-6.5-32q0-17 6.5-29.5t15.5-22.5 19.5-17 18.5-12l65-25q8-6 13-14.5t7-13.5q-2-2-4-3.5t-5-1.5h-168v-78h168q18 0 33.5 6.5t27.5 18 19 26 7 30.5q0 26-17 54.5t-43 43.5l-65 26q-9 5-13 8.5t-6 5.5q2 5 5 9.5t5 6.5h144q11 0 17-2 3-1 4-1 0-1 1-3.5t1-7.5v-121q0-18 8.5-36t23-32.5 32-23 35.5-8.5h34q18 0 36 9.5t33 24 24 33 9 36.5v263z" />
<glyph unicode="&#xe90c;" glyph-name="roundedtwitterbird" horiz-adv-x="850" d="M634 859q43 0 81-16.5t66.5-45 45-66.5 16.5-81v-418q0-43-16.5-81.5t-45-67-66.5-45-81-16.5h-419q-43 0-81 16.5t-66.5 45-45 67-16.5 81.5v418q0 43 16.5 81t45 66.5 66.5 45 81 16.5h419zM624 544q29 20 51 52-14-6-28.5-10t-29.5-6q33 21 44 57-30-19-64-25-30 32-75 32-21 0-39.5-8t-32-22-21.5-32.5-8-39.5q0-6 0.5-11.5t1.5-11.5q-63 3-117 31.5t-92 74.5q-14-23-14-51 0-26 12.5-48t32.5-36q-12 0-23.5 3.5t-22.5 8.5v-1q0-37 23.5-64.5t58.5-35.5q-14-3-27-3h-9.5t-9.5 2q10-31 35.5-50.5t59.5-20.5q-26-20-58.5-32t-67.5-12q-7 0-13 0.5t-12 1.5q34-22 73.5-34t82.5-12q70 0 124 26.5t90.5 68 55.5 93 19 102.5v13z" />
<glyph unicode="&#xe90d;" glyph-name="circletwitterbird" horiz-adv-x="850" d="M424 859q87 0 163-33t133-89.5 90-132.5 33-163-33-163-90-133-133-90-163-33-163 33-132.5 90-89.5 133-33 163 33 163 89.5 132.5 132.5 89.5 163 33zM632 531q29 22 51 53-14-6-28.5-10t-30.5-6q16 10 28 24.5t17 31.5q-15-8-31-14.5t-33-9.5q-14 14-33 23t-42 9q-21 0-39.5-8t-32-22-21.5-32.5-8-39.5q0-6 0.5-12t1.5-11q-63 3-117 31t-92 75q-14-23-14-51 0-26 12.5-48.5t32.5-36.5q-26 2-46 13v-1q0-38 23.5-65.5t58.5-34.5q-7-2-13.5-3t-13.5-1q-5 0-9.5 0.5t-9.5 1.5q10-30 35.5-50t59.5-20q-26-21-58.5-32.5t-67.5-11.5q-7 0-13 0.5t-12 1.5q34-22 73.5-34t82.5-12q70 0 124 26.5t90.5 68 55.5 93 19 101.5v13z" />
<glyph unicode="&#xe90e;" glyph-name="circlestumbleupon" horiz-adv-x="850" d="M425 858q87 0 163-33t132.5-89.5 89.5-132.5 33-163-33-163-89.5-133-132.5-90-163-33-163 33-133 90-90 133-33 163 33 163 90 132.5 133 89.5 163 33zM686 623h-78v-262q-2-6-10.5-15t-13.5-11h-34q-5 1-12.5 9t-8.5 13v121q0 10-3 26t-13.5 31-30.5 25.5-54 10.5h-146q-19 0-35-9.5t-27.5-24-18-31.5-6.5-32q0-17 6.5-29.5t15.5-22.5 19.5-17 18.5-12l65-25q8-6 13-14.5t7-13.5q-2-2-4-3.5t-5-1.5h-168v-78h168q18 0 33.5 6.5t27.5 18 19 26 7 30.5q0 26-17 54.5t-43 43.5l-65 26q-9 5-13 8.5t-6 5.5q2 5 5 9.5t5 6.5h144q11 0 17-2 3-1 4-1 0-1 1-3.5t1-7.5v-121q0-18 8.5-36t23-32.5 32-23 35.5-8.5h34q18 0 36 9.5t33 24 24 33 9 36.5v263z" />
<glyph unicode="&#xe90f;" glyph-name="roundedfriendstar" horiz-adv-x="850" d="M634 858q43 0 81-16.5t66.5-45 45-66.5 16.5-81v-418q0-43-16.5-81.5t-45-67-66.5-45-81-16.5h-419q-43 0-81 16.5t-66.5 45-45 67-16.5 81.5v418q0 43 16.5 81t45 66.5 66.5 45 81 16.5h419zM484 505q0-8 0.5-19t2.5-22 5.5-20 8.5-14q4-5 10-5h1q35 0 35 57 0 13-3.5 25t-8.5 22-12 16-14 6h-2q-20-3-23-46zM396 493q-5-16-2-34t11-30q3-5 8-9.5t13-5.5h4q17 0 25 16t9 36q0 15-6 28.5t-14 21.5q-7 8-16 8-7 0-15.5-4t-16.5-27zM657 419q5 28 2 50t-12 32q-8 9-18 9h-3q-23-2-30-18.5t-13-48.5q-3-15-9-37.5t-19.5-43-36-34.5-56.5-12q-37 2-55 13t-26.5 26-11 32-8.5 32q-2 5-3 9t-3 8q-5 12-14 25.5t-22 25.5-29 20-35 8h-66v-49h48q11 0 27.5-14.5t21.5-39.5q17-77 58.5-116t104.5-39h5q50 1 87 19.5t61.5 44 38 53 16.5 45.5z" />
<glyph unicode="&#xe910;" glyph-name="circlephotobucket" horiz-adv-x="850" d="M633 573h27v-262h-108q26 25 40.5 59t14.5 72-14.5 71.5-40.5 59.5h81zM297 573q-26-26-41-59.5t-15-71.5 15-72 41-59h-108v262h108zM511 573q32-22 51-56t19-75q0-42-19-76t-51-55q-5-3-9-5.5t-9-4.5q-1-1-1.5-1t-1.5-1q-9-4-20-7-11-4-20-5h-5q-5-1-10.5-1.5t-10.5-0.5-10.5 0.5-10.5 1.5h-5q-8 1-19 5h-1q-5 2-9.5 3.5t-9.5 3.5l-4 2q-5 2-9 4.5t-8 5.5q-32 21-51.5 55t-19.5 76q0 41 19.5 75t51.5 56q4 2 8 4.5t9 5.5q2 0 2.5 0.5t1.5 0.5q10 5 19 8h1q7 2 19 4 2 1 5 1 5 1 10.5 1.5t10.5 0.5 10.5-0.5 10.5-1.5q4 0 5-1 5-1 10-1.5t10-2.5l20-8q1 0 1.5-0.5t1.5-0.5q5-3 9-5.5t9-4.5zM555 442q0 27-10.5 51t-28 41.5-41.5 28-51 10.5v-27q22 0 41-8t33-22 22.5-33 8.5-41h26zM424 860q87 0 163-33t133-89.5 90-132.5 33-163-33-163-90-133-133-90-163-33-163 33-132.5 90-89.5 133-33 163 33 163 89.5 132.5 132.5 89.5 163 33zM686 573q0 11-7.5 18.5t-18.5 7.5h-142q-20 12-44 19t-50 7-49.5-7-43.5-19h-37q0 11-8 18.5t-19 7.5h-52q-11 0-18.5-7.5t-7.5-18.5q-11 0-18.5-7.5t-7.5-18.5v-262q0-11 7.5-18.5t18.5-7.5h142q41-26 93-26 53 0 94 26h142q11 0 18.5 7.5t7.5 18.5v262z" />
<glyph unicode="&#xe911;" glyph-name="circlefriendsfeed" horiz-adv-x="850" d="M424 860q87 0 163-33t133-89.5 90-132.5 33-163-33-163-90-133-133-90-163-33-163 33-132.5 90-89.5 133-33 163 33 163 89.5 132.5 132.5 89.5 163 33zM617 624h-69q-27 0-49.5-15t-36.5-38v53h-69q-21 0-39.5-9t-32.5-25-22-36.5-8-44.5v-45h-76v-76h76v-183h76v183h78v-183h76v183h76v76h-76v45q0 17 8.5 27.5t18.5 10.5h69v77zM452 547q-3-9-5-18t-2-20v-45h-78v45q0 17 8.5 27.5t17.5 10.5h59z" />
<glyph unicode="&#xe912;" glyph-name="roundedfeedburner" horiz-adv-x="850" d="M634 858q43 0 81-16.5t66.5-45 45-66.5 16.5-81v-418q0-43-16.5-81.5t-45-67-66.5-45-81-16.5h-419q-43 0-81 16.5t-66.5 45-45 67-16.5 81.5v418q0 43 16.5 81t45 66.5 66.5 45 81 16.5h419zM383 696q-24-17-46.5-47.5t-40.5-68-29-77.5-11-75q0-49 12.5-88.5t33.5-67.5 50-43.5 63-15.5q33 0 64 14.5t55.5 38.5 39.5 54 15 62q0 36-9 62t-23.5 45-33.5 33-40 26q6-32 0.5-56.5t-20-40.5-35-22-44.5 1q23 39 29 65.5t2.5 47-12.5 36.5-17 33-10.5 36.5 7.5 47.5zM425 183q48 0 91 8t75 22 50.5 32.5 18.5 39.5q0 19-14 35t-39 30q-9-28-28.5-53t-45-44-56-30-62.5-11q-60 1-104 37.5t-64 102.5q-27-14-42.5-30.5t-15.5-36.5q0-21 18.5-39.5t50.5-32.5 75-22 92-8zM415 247q-34-1-62.5 16t-43 48-10.5 74.5 36 96.5q-7-30-2.5-56t16-45 27.5-29.5 33-10.5q38-1 61.5 31.5t34.5 79.5q31-24 39.5-58.5t-3.5-67-43.5-55.5-82.5-24z" />
<glyph unicode="&#xe913;" glyph-name="circledesignfloat" horiz-adv-x="850" d="M425 526q35 0 59-24.5t24-59.5-24-59-59-24-59.5 24-24.5 59 24.5 59.5 59.5 24.5zM425 654q44 0 82.5-16.5t67.5-45.5 45.5-67.5 16.5-82.5-16.5-82.5-45.5-67.5-67.5-45.5-82.5-16.5-82.5 16.5-67.5 45.5-45.5 67.5-16.5 82.5 16.5 82.5 45.5 67.5 67.5 45.5 82.5 16.5zM373 621q-59-12-87-53t-40-100h52q10 40 32.5 65.5t42.5 36.5v51zM373 315q-10 5-21 10t-21.5 13-19 20-13.5 32h-52q12-59 40-87t87-40v52zM317 442q0-22 9-41.5t23.5-34 34-23 41.5-8.5 41.5 8.5 34 23 23 34 8.5 41.5-8.5 42-23 34.5-34 23-41.5 8.5-41.5-8.5-34-23-23.5-34.5-9-42zM451 263q29 6 54.5 15.5t45.5 24.5 33.5 36 19.5 51h-52q-5-20-14-32t-22-20-29.5-13-35.5-10v-52zM604 468q-12 60-53 100.5t-100 52.5v-51q39-11 65-36.5t36-65.5h52zM425 861q87 0 163-33t133-89.5 90-133 33-163.5-33-163-90-133-133-90-163-33-163 33-133 90-90 133-33 163 33 163.5 90 133 133 89.5 163 33zM425 207q49 0 91.5 18.5t74.5 50.5 50.5 74.5 18.5 91.5-18.5 92-50.5 75-74.5 50.5-91.5 18.5-92-18.5-75-50.5-50.5-75-18.5-92 18.5-91.5 50.5-74.5 75-50.5 92-18.5z" />
<glyph unicode="&#xe914;" glyph-name="roundedgoogletalk" horiz-adv-x="850" d="M634 858q43 0 81-16.5t66.5-45 45-66.5 16.5-81v-418q0-43-16.5-81.5t-45-67-66.5-45-81-16.5h-419q-43 0-81 16.5t-66.5 45-45 67-16.5 81.5v418q0 43 16.5 81t45 66.5 66.5 45 81 16.5h419zM396 627q38-5 71-19t57-35.5 37.5-49 13.5-57.5q0-38-20.5-70t-55.5-55q51 19 82 54.5t31 79.5q0 31-16.5 59t-45 48.5-66.5 32.5-81 12h-7zM544 320q63 23 102.5 67.5t39.5 99.5q0 39-20.5 73t-56 59.5-83 40.5-101.5 15-102-16-83.5-42.5-56-62-20.5-74.5q0-34 16-64t41.5-54 57.5-41 63-24q-7-21-23.5-47t-44.5-44q46-5 87 4 35 7 72.5 29.5t60.5 69.5q-14-18-36-34-19-14-48-26t-70-16q12 16 21 31t15 26q7 13 13 25-60 14-109 44.5t-69 74.5q-3 10-5 20t-2 21q0 37 16.5 69t45.5 55.5 70 36.5 89 13q49 0 90-12.5t70.5-35 46-53.5 16.5-69q0-51-25.5-93t-77.5-66z" />
<glyph unicode="&#xe915;" glyph-name="roundedslideshare" horiz-adv-x="850" d="M634 858q43 0 81-16.5t66.5-45 45-66.5 16.5-81v-418q0-43-16.5-81.5t-45-67-66.5-45-81-16.5h-419q-43 0-81 16.5t-66.5 45-45 67-16.5 81.5v418q0 43 16.5 81t45 66.5 66.5 45 81 16.5h419zM504 597q-23 0-39.5-17t-16.5-42q0-24 16.5-41t39.5-17 39.5 17 16.5 41q0 25-16.5 42t-39.5 17zM351 597q-23 0-39.5-17t-16.5-42q0-24 16.5-41t39.5-17 39.5 17 16.5 41q0 25-16.5 42t-39.5 17zM678 473q8 16 7.5 22t-1.5 8q0 2-3 2-7 0-17-11-6-8-21.5-16t-32.5-14.5-32-11-19-4.5h-83q-15 0-31-4t-16-12v-14q-3 2-6 5-9 9-20 15.5t-28 6.5h-11q-22 0-54 3t-54 8q-12 3-26.5 11.5t-28.5 17.5q-12 7-21.5 12.5t-14.5 5.5q-1 0-1-1-3-8 1-15.5t15-21.5l5-5q6-8 21.5-17.5t31-17.5 28-13l12.5-5 1-1v-94q0-10 9-22t21.5-22 26.5-16.5 24-6.5q20 0 34 11t14 21v90l3-2q7-5 18-6v-82q0-5 3.5-12.5t12-15 23-13 35.5-5.5 35 11 22 25.5 11 27.5 3 17v87l1 1q7 4 13.5 7t13.5 6q23 11 43.5 24t32.5 36z" />
<glyph unicode="&#xe916;" glyph-name="roundedgowallapin" horiz-adv-x="850" d="M425 636q26 0 49-10t40-27 27-40 10-49-10-49-27-40-40-27-49-10-49.5 10-40.5 27-27 40-10 49 10 49 27 40 40.5 27 49.5 10zM425 440q29 0 49 20.5t20 49.5-20 49.5-49 20.5-49.5-20.5-20.5-49.5 20.5-49.5 49.5-20.5zM634 858q43 0 81-16.5t66.5-45 45-66.5 16.5-81v-418q0-43-16.5-81.5t-45-67-66.5-45-81-16.5h-419q-43 0-81 16.5t-66.5 45-45 67-16.5 81.5v418q0 43 16.5 81t45 66.5 66.5 45 81 16.5h419zM461 345q28 6 52.5 21.5t42 37.5 27.5 49 10 57q0 35-13 65.5t-36 53.5-53.5 36.5-65.5 13.5-66-13.5-54-36.5-36-53.5-13-65.5q0-30 10-57t27.5-49 41.5-37.5 53-21.5l37-144z" />
<glyph unicode="&#xe917;" glyph-name="roundeddeviantart" horiz-adv-x="850" d="M634 858q43 0 81-16.5t66.5-45 45-66.5 16.5-81v-418q0-43-16.5-81.5t-45-67-66.5-45-81-16.5h-419q-43 0-81 16.5t-66.5 45-45 67-16.5 81.5v418q0 43 16.5 81t45 66.5 66.5 45 81 16.5h419zM692 436q-25 33-68 56-37 20-96.5 31t-147.5-4h-4l-22 46-67-8 27-56q-27-11-44.5-25t-28-30-15-32.5-5.5-32.5q-2-37 14-76l216 62-59 120q40 11 75 8t62-12q31-11 58-28l-73-19-21 39q-15 2-32 3t-35-2l50-102zM293 376q-6 14-3 28 2 12 11 27t32 30l32-65z" />
<glyph unicode="&#xe918;" glyph-name="circleappstorealt" horiz-adv-x="850" d="M424 678q49 0 92-18.5t75-50.5 50.5-75 18.5-92-18.5-91.5-50.5-74.5-75-50.5-92-18.5-91.5 18.5-74.5 50.5-50.5 74.5-18.5 91.5 18.5 92 50.5 75 74.5 50.5 91.5 18.5zM555 416h-78v183h-105v-183h-78l130-131zM424 861q87 0 163-33t133-90 90-133 33-163-33-163-90-132.5-133-89.5-163-33-163 33-132.5 89.5-89.5 132.5-33 163 33 163 89.5 133 132.5 90 163 33zM424 181q54 0 102 20.5t83.5 56 56 83 20.5 101.5-20.5 102-56 83.5-83.5 56-102 20.5-101.5-20.5-83-56-56-83.5-20.5-102 20.5-101.5 56-83 83-56 101.5-20.5z" />
<glyph unicode="&#xe919;" glyph-name="roundedsoundcloud" horiz-adv-x="850" d="M634 858q43 0 81-16.5t66.5-45 45-66.5 16.5-81v-418q0-43-16.5-81.5t-45-67-66.5-45-81-16.5h-419q-43 0-81 16.5t-66.5 45-45 67-16.5 81.5v418q0 43 16.5 81t45 66.5 66.5 45 81 16.5h419zM186 432q-21-18-21-44 0-27 21-43v87zM229 445h-5q-5 0-8.5-0.5t-8.5-1.5v-110q5-1 8.5-1.5t8.5-0.5h5v114zM273 475q-13-16-18-39-1 1-2 1.5t-2 1.5v-108h22v144zM316 506q-6-2-11.5-5t-10.5-6v-164h22v175zM360 509q-4 1-7 1.5t-7 0.5q-2 0-4-0.5t-4-0.5v-179h22v178zM403 511q-2-4-5-7t-5-6q-11 6-22 9v-176h32v180zM621 331q32 2 47.5 20t15.5 43q0 26-17.5 44t-44.5 18q-11 0-24-5-5 41-36 69.5t-74 28.5q-22 0-40.5-7.5t-33.5-20.5v-190h207z" />
<glyph unicode="&#xe91a;" glyph-name="roundeddesignbump" horiz-adv-x="850" d="M634 858q43 0 81-16.5t66.5-45 45-66.5 16.5-81v-418q0-43-16.5-81.5t-45-67-66.5-45-81-16.5h-419q-43 0-81 16.5t-66.5 45-45 67-16.5 81.5v418q0 43 16.5 81t45 66.5 66.5 45 81 16.5h419zM346 571h52v-53l105-104h-105v-105l105 105v157h52l-104 104zM372 440h53l-105 104-105-104h53v-236h104v236zM451 257h-53v-53h53v53zM634 283l-105 105-104-105h52v-79h104v79h53z" />
<glyph unicode="&#xe91b;" glyph-name="roundedgooglebuzz" horiz-adv-x="850" d="M634 858q43 0 81-16.5t66.5-45 45-66.5 16.5-81v-418q0-43-16.5-81.5t-45-67-66.5-45-81-16.5h-419q-43 0-81 16.5t-66.5 45-45 67-16.5 81.5v418q0 43 16.5 81t45 66.5 66.5 45 81 16.5h419zM425 649q-63 0-116.5-24t-85.5-66l134-128 201 185q-29 16-63.5 24.5t-69.5 8.5zM189 463q0-74 65-127l83 77-129 122q-19-35-19-72zM425 277q89 0 157 48l-148 140-164-152-1-2q-7-14-16.5-28t-22.5-23q6-1 14-2t19-1q48 0 86 26l6 3 5-1q34-8 65-8zM603 342q57 52 57 121 0 40-20 76t-58 62l-127-118z" />
<glyph unicode="&#xe91c;" glyph-name="roundedtechnorati" horiz-adv-x="850" d="M451 612q30 0 56.5-9t46-24 31-35.5 11.5-43.5-11.5-43.5-31-35.5-46-24-56.5-9-57 9-46.5 24-31 35.5-11.5 43.5 11.5 43.5 31 35.5 46.5 24 57 9zM634 858q43 0 81-16.5t66.5-45 45-66.5 16.5-81v-418q0-43-16.5-81.5t-45-67-66.5-45-81-16.5h-419q-43 0-81 16.5t-66.5 45-45 67-16.5 81.5v418q0 43 16.5 81t45 66.5 66.5 45 81 16.5h419zM451 298q49 0 91.5 16t74.5 43 50.5 64 18.5 79-18.5 78.5-50.5 63.5-74.5 43-91.5 16-92-16-75-43-50.5-63.5-18.5-78.5q0-40 16.5-74.5t45.5-61.5l-17-133 111 79q37-12 80-12z" />
<glyph unicode="&#xe91d;" glyph-name="roundedfoursquare" horiz-adv-x="850" d="M331 398l-8-2q-14-6-26-6-33 0-56 25t-23 60 23 59.5 56 24.5q16 0 30.5-6.5t25-18 17-27 6.5-32.5q0-16-6-31l-2-6 55-83 206 224v-89l-206-189zM634 858q43 0 81-16.5t66.5-45 45-66.5 16.5-81v-418q0-43-16.5-81.5t-45-67-66.5-45-81-16.5h-419q-43 0-81 16.5t-66.5 45-45 67-16.5 81.5v418q0 43 16.5 81t45 66.5 66.5 45 81 16.5h419zM660 655l-17-19-153-164-65 67-27-28q-11 34-38.5 55.5t-62.5 21.5q-23 0-42.5-9t-34-24.5-23-36-8.5-43.5 8.5-43.5 23-36 33.5-25 41-9.5l130-137 150 158-15 16 100 80v177z" />
<glyph unicode="&#xe91e;" glyph-name="circlegrooveshark" horiz-adv-x="850" d="M424 858q87 0 163-33t133-89.5 90-132.5 33-163-33-163-90-133-133-90-163-33-163 33-132.5 90-89.5 133-33 163 33 163 89.5 132.5 132.5 89.5 163 33zM424 178q54 0 102 20.5t83.5 56 56 83.5 20.5 102-20.5 101.5-56 83-83.5 56-102 20.5-101.5-20.5-83-56-56-83-20.5-101.5 20.5-102 56-83.5 83-56 101.5-20.5zM424 675q49 0 92-18.5t75-50.5 50.5-74.5 18.5-91.5q0-29-7-56.5t-20-51.5q-18 12-35.5 33.5t-33 43.5-28 41.5-19.5 27.5q-38 42-75.5 70t-92.5 44q-1-29 0-57.5t-1.5-55-11.5-50-30-41.5q-9-8-21.5-14t-26.5-10-28-5.5-26-0.5q-15 39-15 82 0 49 18.5 91.5t50.5 74.5 74.5 50.5 91.5 18.5z" />
<glyph unicode="&#xe91f;" glyph-name="roundedgoogleplus" horiz-adv-x="850" d="M634 849q43 0 81-16.5t66.5-45 45-66.5 16.5-81v-418q0-43-16.5-81.5t-45-67-66.5-45-81-16.5h-419q-43 0-81 16.5t-66.5 45-45 67-16.5 81.5v418q0 43 16.5 81t45 66.5 66.5 45 81 16.5h419zM448 214q45 39 45 90 0 33-15 54t-32.5 36.5-32.5 28-15 27.5q0 17 15 30.5t31 30.5q10 11 17.5 29t7.5 42q0 14-3.5 27t-9.5 27q-12 25-35 39h43l43 26h-139q-14 0-29-2t-30-5q-44-9-74-45-30-35-30-79 0-48 33-78 34-31 81-31h10.5t12.5 1q-1-2-2.5-6.5t-2.5-6.5q-2-8-2-14 0-23 20-47-46-1-97-16-26-8-46-23t-30-35q-12-23-12-42 0-28 14-47t36-30.5 47-16.5 48-5q84 0 133 41zM698 619h-81v82h-41v-82h-81v-40h81v-81h41v81h81v40zM407 550q0-32-13.5-51t-44.5-19q-21 0-37.5 12.5t-27.5 31.5-17 40.5-6 39.5q0 32 16 52 16 22 46 22 21 0 37.5-13t26.5-33q20-42 20-82zM435 312q4-6 6-11t3.5-11 1.5-13q0-21-9-35.5t-23.5-23-32-12.5-35.5-4q-20 0-40.5 4.5t-38.5 14.5-29.5 27-11.5 39q0 29 18 46.5t44 25.5q34 10 68 10 12 0 16-1l9-6q9-6 11-8l9-7q7-5 11-8l8-8q6-5 8.5-9t6.5-10z" />
<glyph unicode="&#xe920;" glyph-name="circlegoogleplus" horiz-adv-x="850" d="M413 551q0-32-14-51t-45-19q-21 0-37.5 12.5t-27.5 31-17 40-6 39.5q0 29 16 53 17 22 46 22 21 0 38-13t26-33q10-20 15.5-41.5t5.5-40.5zM441 312q3-3 5-11 5-10 5-24 0-21-9-35t-23.5-22.5-32-12.5-35.5-4q-42 0-79 19-18 10-29 26.5t-11 38.5q0 30 17.5 47t43.5 25q18 6 34.5 8.5t33.5 2.5q5 0 9-0.5t7-0.5l9-7q5-2 7-4t4-3l10-7q4-3 6-5l4-4q2-1 9-8 5-5 8-9t7-10zM425 860q87 0 163-33t133-89.5 90-133 33-163.5-33-163-90-133-133-90-163-33-163 33-133 90-90 133-33 163 33 163.5 90 133 133 89.5 163 33zM451 215q45 39 45 89 0 33-15 54.5t-33 37-33 27.5-15 27q0 18 15.5 31.5t30.5 30.5q11 11 18.5 29t7.5 42q0 25-13 53-12 26-35 40h43l43 25h-139q-29 0-59-6-44-10-74-45t-30-79q0-48 33-78 34-31 81-31h10.5t12.5 1q-1-2-2.5-6.5l-2.5-7.5q-2-3-2-13 0-23 20-47-48-1-97-16-26-8-46-23t-30-35q-12-23-12-43 0-27 14-46t36-31 47-17 48-5q85 0 133 42zM701 620h-81v81h-41v-81h-81v-40h81v-82h41v82h81v40z" />
<glyph unicode="&#xe921;" glyph-name="circlegowallapin" horiz-adv-x="850" d="M424 858q87 0 163-33t133-89.5 90-132.5 33-163-33-163-90-133-133-90-163-33-163 33-132.5 90-89.5 133-33 163 33 163 89.5 132.5 132.5 89.5 163 33zM461 345q28 6 52.5 21.5t42 37.5 27.5 49 10 57q0 35-13.5 65.5t-36.5 53.5-53.5 36.5-65.5 13.5-65.5-13.5-53.5-36.5-36-53.5-13-65.5q0-30 10-57t27.5-49 41.5-37.5 52-21.5l37-144zM424 636q26 0 49-10t40.5-27 27.5-40 10-49-10-49-27.5-40-40.5-27-49-10-49 10-40 27-27 40-10 49 10 49 27 40 40 27 49 10zM424 440q29 0 49.5 20.5t20.5 49.5-20.5 49.5-49.5 20.5-49-20.5-20-49.5 20-49.5 49-20.5z" />
<glyph unicode="&#xe922;" glyph-name="roundedinstagram" horiz-adv-x="850" d="M566 440q0 17-5 37h42v-202q0-8-5.5-13t-13.5-5h-329q-8 0-13 5t-5 13v202h41q-5-20-5-37 0-30 11.5-57t31.5-46.5 47-31 57-11.5 57 11.5 46.5 31 31 46.5 11.5 57zM420 349q-19 0-36 7t-29.5 19.5-19.5 29-7 35.5 7 36 19.5 29.5 29.5 19.5 36 7 35.5-7 29-19.5 19.5-29.5 7-36-7-35.5-19.5-29-29-19.5-35.5-7zM584 623q8 0 13.5-5t5.5-13v-55q0-8-5.5-13t-13.5-5h-55q-8 0-13 5t-5 13v55q0 8 5 13t13 5h55zM633 859q43 0 81.5-16.5t67-45 45-66.5 16.5-81v-418q0-43-16.5-81.5t-45-67-67-45-81.5-16.5h-418q-43 0-81 16.5t-66.5 45-45 67-16.5 81.5v418q0 43 16.5 81t45 66.5 66.5 45 81 16.5h418zM658 623q0 23-16 39t-39 16h-366q-23 0-39-16t-16-39v-366q0-23 16-39t39-16h366q23 0 39 16t16 39v366z" />
<glyph unicode="&#xe923;" glyph-name="roundedyahoobuzz" horiz-adv-x="850" d="M634 858q43 0 81-16.5t66.5-45 45-66.5 16.5-81v-418q0-43-16.5-81.5t-45-67-66.5-45-81-16.5h-419q-43 0-81 16.5t-66.5 45-45 67-16.5 81.5v418q0 43 16.5 81t45 66.5 66.5 45 81 16.5h419zM451 204q32 0 60.5 12.5t50 34 34 50 12.5 60.5q0 33-12.5 61.5t-34 49.5-50 33.5-60.5 12.5h-53v-78h53q32 0 55-23t23-56q0-32-23-55t-55-23q-33 0-56 23t-23 55v314h-78v-314q0-32 12.5-60.5t33.5-50 49.5-34 61.5-12.5z" />
<glyph unicode="&#xe924;" glyph-name="roundeddelicious" horiz-adv-x="850" d="M634 858q43 0 81-16.5t66.5-45 45-66.5 16.5-81v-418q0-43-16.5-81.5t-45-67-66.5-45-81-16.5h-419q-43 0-81 16.5t-66.5 45-45 67-16.5 81.5v418q0 43 16.5 81t45 66.5 66.5 45 81 16.5h419zM634 649h-209v-209h-210v-209h210v209h209v209z" />
<glyph unicode="&#xe925;" glyph-name="roundedwordpress" horiz-adv-x="850" d="M634 858q43 0 81-16.5t66.5-45 45-66.5 16.5-81v-418q0-43-16.5-81.5t-45-67-66.5-45-81-16.5h-419q-43 0-81 16.5t-66.5 45-45 67-16.5 81.5v418q0 43 16.5 81t45 66.5 66.5 45 81 16.5h419zM189 466q0-35 9.5-67t27-59.5 42-49.5 54.5-36l-112 308q-10-23-15.5-46.5t-5.5-49.5zM425 231q42 0 78 13-2 2-2 3l-72 198-71-205q31-9 67-9zM542 323l24 79q17 46 17 76 0 22-6 37.5t-13 27.5q-9 14-16 27.5t-7 27.5q0 16 11 29t28 13q1 0 1.5-0.5t1.5-0.5q-31 29-71.5 45.5t-86.5 16.5q-63 0-114-29t-83-77h35t21 1l22 2q4 0 7-2.5t3-6-2-7-7-3.5q-4 0-8-1-10-2-19-2l86-255 52 155-37 100q-5 0-9 0.5t-8 1.5-8 1q-5 0-7 3t-1.5 7 3 6.5 7.5 2.5l22-2q9-1 20-1h39.5t20.5 1l22 2q5 0 7.5-2.5t3-6-1.5-7-7-3.5q-4 0-8-1-10-2-19-2zM543 263q53 30 85 83.5t32 119.5q0 31-7.5 59t-21.5 54q1-6 1.5-12t0.5-12q0-18-4-38.5t-14-46.5z" />
<glyph unicode="&#xe926;" glyph-name="circletechnorati" horiz-adv-x="850" d="M451 612q30 0 56.5-9t46-24 31-35.5 11.5-43.5-11.5-43.5-31-35.5-46-24-56.5-9-57 9-46.5 24-31 35.5-11.5 43.5 11.5 43.5 31 35.5 46.5 24 57 9zM425 858q87 0 163-33t132.5-89.5 89.5-132.5 33-163-33-163-89.5-133-132.5-90-163-33-163 33-133 90-90 133-33 163 33 163 90 132.5 133 89.5 163 33zM451 298q49 0 91.5 16t74.5 43 50.5 64 18.5 79-18.5 78.5-50.5 63.5-74.5 43-91.5 16-92-16-75-43-50.5-63.5-18.5-78.5q0-40 16.5-74.5t45.5-61.5l-17-133 111 79q37-12 80-12z" />
<glyph unicode="&#xe927;" glyph-name="roundedwikipedia" horiz-adv-x="850" d="M634 858q43 0 81-16.5t66.5-45 45-66.5 16.5-81v-418q0-43-16.5-81.5t-45-67-66.5-45-81-16.5h-419q-43 0-81 16.5t-66.5 45-45 67-16.5 81.5v418q0 43 16.5 81t45 66.5 66.5 45 81 16.5h419zM686 622l-1 1h-108l-2-1v-11q0-1 2-3 1-1 3-1l9-1q8 0 11.5-2t6.5-5q7-5 2-21l-96-251-3 1-61 137q0 1 0.5 1.5t0.5 1.5v1l50 102q5 8 8.5 15t5.5 10q4 7 7.5 8.5t14.5 2.5q5 0 5 4v11l-1 1h-88l-2-1v-11q0-1 2-3 1-1 3-1l4-1q15 0 18-5 2-3 2.5-7.5t-4.5-15.5l-39-84-34 78q-8 19-9 25.5t12 8.5l7 1q4 0 4 4v11l-2 1h-93l-2-1v-11q0-4 7-4 6-1 9.5-2.5t6.5-5 6.5-11 9.5-20.5q1-2 2-5t3-7 4-9l36-78q1-3 3-7t3.5-8.5 4.5-10.5l-53-116-3 1q-24 55-44 103-9 21-17.5 42.5t-17 41.5-15.5 37-11 29q-3 10-3 15 0 10 16 10l12 1q5 0 5 4v10l-1 1h-118l-1-1v-11q0-3 7-3 19-2 24-7 4-4 14-27 11-30 27-69t33.5-80 34-80.5 28.5-69.5q6-16 14-17.5t19 18.5q5 10 12.5 26.5t16 35.5 17 38.5 16.5 37.5q7-18 15-37.5t16-38.5 14.5-35 11.5-27q8-17 16.5-18t16.5 18q6 14 14 34t17 43.5 19 49 20 49.5l48 120q6 18 16 26t32 10q4 0 4 4v11z" />
<glyph unicode="&#xe928;" glyph-name="circlesoundcloud" horiz-adv-x="850" d="M425 858q87 0 163-33t132.5-89.5 89.5-132.5 33-163-33-163-89.5-133-132.5-90-163-33-163 33-133 90-90 133-33 163 33 163 90 132.5 133 89.5 163 33zM186 432q-21-18-21-44 0-27 21-43v87zM229 445h-5q-5 0-8.5-0.5t-8.5-1.5v-110q5-1 8.5-1.5t8.5-0.5h5v114zM273 475q-13-16-18-39-1 1-2 1.5t-2 1.5v-108h22v144zM316 506q-6-2-11.5-5t-10.5-6v-164h22v175zM360 509q-4 1-7 1.5t-7 0.5q-2 0-4-0.5t-4-0.5v-179h22v178zM403 511q-2-4-5-7t-5-6q-11 6-22 9v-176h32v180zM621 331q32 2 47.5 20t15.5 43q0 26-17.5 44t-44.5 18q-11 0-24-5-5 41-36 69.5t-74 28.5q-22 0-40.5-7.5t-33.5-20.5v-190h207z" />
<glyph unicode="&#xe929;" glyph-name="circleslideshare" horiz-adv-x="850" d="M425 858q87 0 163-33t132.5-89.5 89.5-132.5 33-163-33-163-89.5-133-132.5-90-163-33-163 33-133 90-90 133-33 163 33 163 90 132.5 133 89.5 163 33zM504 597q-23 0-39.5-17t-16.5-42q0-24 16.5-41t39.5-17 39.5 17 16.5 41q0 25-16.5 42t-39.5 17zM351 597q-23 0-39.5-17t-16.5-42q0-24 16.5-41t39.5-17 39.5 17 16.5 41q0 25-16.5 42t-39.5 17zM678 473q8 16 7.5 22t-1.5 8q0 2-3 2-7 0-17-11-6-8-21.5-16t-32.5-14.5-32-11-19-4.5h-83q-15 0-31-4t-16-12v-14q-3 2-6 5-9 9-20 15.5t-28 6.5h-11q-22 0-54 3t-54 8q-12 3-26.5 11.5t-28.5 17.5q-12 7-21.5 12.5t-14.5 5.5q-1 0-1-1-3-8 1-15.5t15-21.5l5-5q6-8 21.5-17.5t31-17.5 28-13l12.5-5 1-1v-94q0-10 9-22t21.5-22 26.5-16.5 24-6.5q20 0 34 11t14 21v90l3-2q7-5 18-6v-82q0-5 3.5-12.5t12-15 23-13 35.5-5.5 35 11 22 25.5 11 27.5 3 17v87l1 1q7 4 13.5 7t13.5 6q23 11 43.5 24t32.5 36z" />
<glyph unicode="&#xe92a;" glyph-name="roundedgithubalt" horiz-adv-x="850" d="M634 864q43 0 81-16.5t66.5-45 45-66.5 16.5-81v-418q0-43-16.5-81.5t-45-67-66.5-45-81-16.5h-419q-43 0-81 16.5t-66.5 45-45 67-16.5 81.5v418q0 43 16.5 81t45 66.5 66.5 45 81 16.5h419zM694 311q21 43 21 115 0 82-47 138 9 28 9 58 0 40-18 76-38 0-65-13-30-14-65-42-23 5-47 8t-50 3q-56 0-107-12-38 28-66 42-27 14-66 14-18-36-18-76 0-15 2.5-29.5t7.5-28.5q-47-54-47-138 0-72 21-115 17-35 50-55.5t69-29.5q26-8 53-11 15-2 28-3t24-1q11-1 23-1h56t28 1q13 1 27.5 3t31.5 5q35 6 59 16 26 11 49 30.5t37 45.5zM548 469q42 0 65-29 24-29 24-71 0-30-11-52.5t-28-36.5q-18-13-42-20-26-8-49-10.5t-52-2.5h-58q-29 0-51.5 2.5t-48.5 10.5q-24 7-42 20-17 14-28.5 36.5t-11.5 52.5q0 42 24 71 23 29 65 29 8 0 25-1.5t43-5.5q12-2 25.5-3t28.5-1 28.5 1 26.5 3q26 4 43 5.5t24 1.5zM340 315q16 18 18.5 40t-3.5 43q-4 14-14.5 26t-25.5 12-25-12q-16-18-18.5-40t3.5-43q5-14 15.5-26t24.5-12 25 12zM562 315q16 18 18.5 40t-3.5 43q-4 14-14.5 26t-25.5 12-25-12q-16-18-18.5-40t3.5-43q5-14 15.5-26t24.5-12 25 12z" />
<glyph unicode="&#xe92b;" glyph-name="circlegoogletalk" horiz-adv-x="850" d="M424 860q87 0 163-33t133-89.5 90-132.5 33-163-33-163-90-133-133-90-163-33-163 33-132.5 90-89.5 133-33 163 33 163 89.5 132.5 132.5 89.5 163 33zM396 629q38-5 71-19t57-35.5 37.5-49 13.5-57.5q0-38-20.5-70t-55.5-55q51 19 81.5 54.5t30.5 79.5q0 31-16.5 59t-44.5 48.5-66.5 32.5-81.5 12h-6zM543 322q64 23 103.5 67.5t39.5 99.5q0 39-20.5 73t-56 59.5-83.5 40.5-102 15-101.5-16-83-42.5-56-62-20.5-74.5q0-34 16-64t41.5-54 57.5-41 63-24q-7-21-23.5-47t-44.5-44q45-5 86 4 35 7 72.5 29.5t61.5 69.5q-14-18-36-34-19-14-48-26t-70-16q12 16 21 31t15 26q7 13 13 25-30 7-57.5 18t-51.5 26.5-42 34-28 40.5l-4 20t-2 21q0 37 16.5 69t45.5 55.5 70 36.5 89 13 89-12.5 71-35 46.5-53.5 16.5-69q0-51-25.5-93t-78.5-66z" />
<glyph unicode="&#xe92c;" glyph-name="circlegooglebuzz" horiz-adv-x="850" d="M424 858q87 0 163-33t133-89.5 90-132.5 33-163-33-163-90-133-133-90-163-33-163 33-132.5 90-89.5 133-33 163 33 163 89.5 132.5 132.5 89.5 163 33zM424 649q-62 0-115.5-24t-85.5-66l134-128 201 185q-29 16-63.5 24.5t-70.5 8.5zM208 535q-19-32-19-72 0-36 16.5-68.5t47.5-58.5l84 77zM424 277q45 0 85 12.5t72 35.5l-147 140-165-152-1-2q-6-14-15.5-28t-22.5-23q5-1 13.5-2t19.5-1q48 0 86 26l6 3 4-1q17-4 32.5-6t32.5-2zM603 342q57 52 57 121 0 40-20.5 76t-57.5 62l-128-118z" />
<glyph unicode="&#xe92d;" glyph-name="circlefriendstar" horiz-adv-x="850" d="M424 858q87 0 163-33t133-89.5 90-132.5 33-163-33-163-90-133-133-90-163-33-163 33-132.5 90-89.5 133-33 163 33 163 89.5 132.5 132.5 89.5 163 33zM484 505q-1-17 2.5-41t13.5-34q5-5 11-5 36 0 36 57 0 13-3.5 25t-8.5 22-12 16-14 6h-3q-19-3-22-46zM396 493q-5-16-2.5-34t11.5-30q3-5 8-9.5t13-5.5h4q17 0 25 16t9 36q0 15-6 28.5t-14 21.5-16 8q-7 0-16-4t-16-27zM657 419q5 28 2 50t-12 32q-8 9-19 9h-2q-23-2-30-18.5t-13-48.5q-3-15-9-37.5t-19.5-43-36-34.5-56.5-12q-37 2-55 13t-26.5 26-11 32-8.5 32q-2 5-3 9t-3 8q-5 12-14 25.5t-22 25.5-29 20-35 8h-66v-49h48q11 0 27-14.5t22-39.5q17-77 58.5-116t104.5-39h5q50 1 87 19.5t61.5 44 38 53 16.5 45.5z" />
<glyph unicode="&#xe92e;" glyph-name="circlefoursquare" horiz-adv-x="850" d="M423 356l206 224v-89l-206-189-92 98-8-3q-14-6-26-6-33 0-56.5 25t-23.5 60 23.5 59.5 56.5 24.5q16 0 30.5-6.5t25-18 17-27 6.5-32.5q0-16-6-31l-2-6zM424 859q87 0 163-33t133-89.5 90-132.5 33-163-33-163-90-133-133-90-163-33-163 33-132.5 90-89.5 133-33 163 33 163 89.5 132.5 132.5 89.5 163 33zM660 656l-18-19-153-164-64 67-27-28q-11 34-38.5 55.5t-62.5 21.5q-23 0-42.5-9t-34-24.5-23-36-8.5-43.5 8.5-43.5 22.5-36 33.5-25 41.5-9.5l130-137 150 158-16 16 101 80v177z" />
<glyph unicode="&#xe92f;" glyph-name="roundedposterous" horiz-adv-x="850" d="M447 654q52 0 84.5-40.5t32.5-104.5q0-69-32.5-109.5t-86.5-40.5q-38 0-67.5 23t-39.5 61q-3 12-3 29v66q0 12 4 28 10 39 40 63.5t68 24.5zM634 858q43 0 81-16.5t66.5-45 45-66.5 16.5-81v-418q0-43-16.5-81.5t-45-67-66.5-45-81-16.5h-419q-43 0-81 16.5t-66.5 45-45 67-16.5 81.5v418q0 43 16.5 81t45 66.5 66.5 45 81 16.5h419zM457 312q31 0 61.5 12t54.5 36.5 39 62.5 15 90q0 42-11.5 76.5t-32.5 59-50 38.5-64 14q-90 0-132-71l-3-2h-5l-4 65h-54q1-27 2-56t1-64v-395h61v190l1 4h6l1-2q17-27 47-42.5t67-15.5z" />
<glyph unicode="&#xe930;" glyph-name="circlefeedburner" horiz-adv-x="850" d="M425 861q87 0 163.5-33t133.5-90 90-133.5 33-163.5-33-163.5-90-133.5-133.5-90-163.5-33-163.5 33-133.5 90-90 133.5-33 163.5 33 163.5 90 133.5 133.5 90 163.5 33zM384 699q-24-17-47-48t-41-68.5-29-77.5-11-75q0-50 12-89.5t33.5-67.5 50.5-43.5 63-15.5q33 0 64.5 14.5t56 38.5 39.5 54 15 62q0 36-9 62.5t-24 45.5-34 33-39 26q6-32 0-57t-20-41-34.5-22-44.5 1q23 39 29 66t2.5 47.5-13 36.5-17.5 33-10.5 37 8.5 48zM425 184q49 0 92 8t75 22 50.5 32.5 18.5 39.5q0 19-14 35t-39 30q-9-28-28.5-53.5t-45-44-56-29.5-62.5-11q-60 0-105 37t-65 103q-27-14-42-30.5t-15-36.5q0-21 18.5-39.5t50.5-32.5 75-22 92-8zM415 247q-34 0-62.5 17t-43 48.5-11 75 35.5 95.5q-6-30-1.5-56t16-45 28-29.5 33.5-10.5q38-1 61.5 31.5t34.5 80.5q31-24 39.5-59t-3.5-67.5-44-56-83-24.5z" />
<glyph unicode="&#xe931;" glyph-name="circledeviantart" horiz-adv-x="850" d="M282 372q-5 14-3 28 2 12 11 27t32 30l32-66zM425 859q87 0 163-33t133-90 90-133 33-163-33-163.5-90-133.5-133-90-163-33-163.5 33-133.5 90-90 133.5-33 163.5 33 163 90 133 133.5 90 163.5 33zM681 432q-25 33-68 56-37 20-96.5 31t-147.5-4h-4l-23 46-67-8 27-56q-27-11-44.5-25.5t-28-30.5-15-32.5-5.5-32.5q-2-37 14-76l217 62-59 121q40 11 75.5 8t62.5-12q32-11 58-28l-74-20-21 40q-15 2-32 2.5t-35-2.5l50-101z" />
<glyph unicode="&#xe932;" glyph-name="circledesignbump" horiz-adv-x="850" d="M425 861q87 0 163.5-33t133.5-90 90-133.5 33-163.5-33-163.5-90-133.5-133.5-90-163.5-33-163.5 33-133.5 90-90 133.5-33 163.5 33 163.5 90 133.5 133.5 90 163.5 33zM346 573h53v-53l105-105h-105v-105l105 105v158h52l-105 105zM372 441h53l-105 105-105-105h52v-236h105v236zM451 258h-52v-53h52v53zM635 284l-105 105-105-105h52v-79h105v79h53z" />
<glyph unicode="&#xe933;" glyph-name="roundedpinterest" horiz-adv-x="850" d="M634 858q43 0 81-16.5t66.5-45 45-66.5 16.5-81v-418q0-43-16.5-81.5t-45-67-66.5-45-81-16.5h-419q-43 0-81 16.5t-66.5 45-45 67-16.5 81.5v418q0 43 16.5 81t45 66.5 66.5 45 81 16.5h419zM557 350q18 15 30.5 36t20.5 46 11 50.5 0 49.5q-3 26-16 50.5t-34 43.5-48 32-57 16q-46 5-88.5-6t-75-34.5-52.5-58.5-20-79q0-42 15-68t53-40q13 12 13.5 22.5t-4.5 21-12 22-8 25.5q-4 37 14.5 70.5t49.5 54.5 71 25 80-19q19-11 30-31.5t15.5-46 2-53-12-50.5-25.5-40-38-21q-14-3-28.5 0.5t-20.5 9.5q-16 15-13 34t11 41 14.5 45-2.5 44q-8 18-22.5 21.5t-28.5-3.5-25.5-21-14.5-30q-2-17 3-33.5t5-32.5q0-18-5-38.5t-11.5-42-13-42-9.5-38.5q-2-14-3.5-38t2.5-39l-1-1h33q17 29 29 68t21 75q5 5 7.5-2t7.5-10q15-12 36-14.5t42 0.5 40.5 11 31.5 18z" />
<glyph unicode="&#xe934;" glyph-name="roundedsharethis" horiz-adv-x="850" d="M634 858q43 0 81-16.5t66.5-45 45-66.5 16.5-81v-418q0-43-16.5-81.5t-45-67-66.5-45-81-16.5h-419q-43 0-81 16.5t-66.5 45-45 67-16.5 81.5v418q0 43 16.5 81t45 66.5 66.5 45 81 16.5h419zM355 445l168 84q11-9 24.5-14.5t29.5-5.5q35 0 59 24t24 59-24 59-59 24-59-24-24-59v-5l-168-84q-11 9-24.5 14.5t-29.5 5.5q-35 0-59-24t-24-59 24-59 59-24q31 0 54 20l168-85v-4q0-35 24-59.5t59-24.5 59 24.5 24 59.5q0 34-24 58.5t-59 24.5q-16 0-29.5-5.5t-24.5-14.5l-168 84v10z" />
<glyph unicode="&#xe935;" glyph-name="circlepinterest" horiz-adv-x="850" d="M425 860q87 0 163-33t132.5-89.5 89.5-132.5 33-163-33-163-89.5-133-132.5-90-163-33-163 33-133 90-90 133-33 163 33 163 90 132.5 133 89.5 163 33zM557 352q18 15 30.5 36t20.5 46 11 50.5 0 49.5q-3 26-16 50.5t-34 43.5-48 32-57 16q-46 5-88.5-6t-75-34.5-52.5-58.5-20-79q0-42 15-68t53-40q13 12 13.5 22.5t-4.5 21-12 22-8 25.5q-4 37 14.5 70.5t49.5 54.5 71 25 80-19q19-11 30-31.5t15.5-46 2-53-12-50.5-25.5-40-38-21q-14-3-28.5 0.5t-20.5 9.5q-16 15-13 34t11 41 14.5 45-2.5 44q-8 18-22.5 21.5t-28.5-3.5-25.5-21-14.5-30q-2-17 3-33.5t5-32.5q0-18-5-38.5t-11.5-42-13-42-9.5-38.5q-2-14-3.5-38t2.5-39l-1-1h33q17 29 29 68t21 75q5 5 7.5-2t7.5-10q15-12 36-14.5t42 0.5 40.5 11 31.5 18z" />
<glyph unicode="&#xe936;" glyph-name="circleinstagram" horiz-adv-x="850" d="M420 347q-19 0-35.5 7t-29 19.5-19.5 29.5-7 36 7 35.5 19.5 29 29 19.5 35.5 7q38 0 64.5-26.5t26.5-64.5q0-19-7-36t-19.5-29.5-29-19.5-35.5-7zM566 439q0 9-1 18.5t-3 17.5h41v-201q0-8-5-13t-13-5h-330q-8 0-13 5t-5 13v201h41q-2-8-3-17.5t-1-18.5q0-30 11.5-57t31-47 46.5-31.5 57-11.5 57 11.5 46.5 31.5 31 47 11.5 57zM424 858q87 0 163-33t133-89.5 90-132.5 33-163-33-163-90-133-133-90-163-33-163 33-132.5 90-89.5 133-33 163 33 163 89.5 132.5 132.5 89.5 163 33zM658 622q0 23-16 39t-39 16h-366q-23 0-39-16t-16-39v-366q0-23 16-39t39-16h366q23 0 39 16t16 39v366zM585 622q8 0 13-5.5t5-13.5v-55q0-8-5-13t-13-5h-55q-8 0-13.5 5t-5.5 13v55q0 8 5.5 13.5t13.5 5.5h55z" />
<glyph unicode="&#xe937;" glyph-name="circlegithubalt" horiz-adv-x="850" d="M549 454q41 0 65-29 24-30 24-71 0-31-11.5-53t-28.5-36-42-21q-26-8-48.5-10t-51.5-2h-59q-28 0-51 2t-49 10q-26 7-42 21-17 14-28 36t-11 53q0 41 24 71 24 29 65 29 8 0 24.5-2t42.5-5q12-2 26-3t29-1q14 0 28 1t26 3q27 3 43.5 5t24.5 2zM341 299q16 19 18.5 41t-3.5 42q-5 15-15.5 27t-24.5 12-26-12q-15-19-17.5-41t2.5-42q5-15 15.5-27t25.5-12q14 0 25 12zM563 299q16 19 18.5 41t-4.5 42q-4 15-14.5 27t-24.5 12-26-12q-15-19-17.5-41t2.5-42q5-15 15.5-27t25.5-12q14 0 25 12zM425 860q87 0 163-33t133-89.5 90-133 33-163.5-33-163-90-133-133-90-163-33-163 33-133 90-90 133-33 163 33 163.5 90 133 133 89.5 163 33zM694 300q21 43 21 115 0 84-47 138 9 28 9 58 0 39-17 76-36 0-66-14-14-7-30-17.5t-35-24.5q-45 12-97 12-28 0-54.5-3.5t-52.5-9.5q-38 30-66 43-30 14-65 14-18-36-18-76 0-31 9-59-47-55-47-137 0-72 22-115 16-35 49.5-55.5t69.5-29.5q26-8 53-11 14-2 27-3t24-1q11-1 23-1h56.5t27.5 1 27.5 3 31.5 5q35 6 59 16 26 11 49 30.5t37 45.5z" />
<glyph unicode="&#xe938;" glyph-name="circleyahoobuzz" horiz-adv-x="850" d="M425 858q87 0 163-33t132.5-89.5 89.5-132.5 33-163-33-163-89.5-133-132.5-90-163-33-163 33-133 90-90 133-33 163 33 163 90 132.5 133 89.5 163 33zM451 204q32 0 60.5 12.5t50 34 34 50 12.5 60.5q0 33-12.5 61.5t-34 49.5-50 33.5-60.5 12.5h-53v-78h53q32 0 55-23t23-56q0-32-23-55t-55-23q-33 0-56 23t-23 55v314h-78v-314q0-32 12.5-60.5t33.5-50 49.5-34 61.5-12.5z" />
<glyph unicode="&#xe939;" glyph-name="circlewordpress" horiz-adv-x="850" d="M425 858q87 0 163-33t132.5-89.5 89.5-132.5 33-163-33-163-89.5-133-132.5-90-163-33-163 33-133 90-90 133-33 163 33 163 90 132.5 133 89.5 163 33zM189 466q0-35 9.5-67t27-59.5 42-49.5 54.5-36l-112 308q-10-23-15.5-46.5t-5.5-49.5zM425 231q42 0 78 13-2 2-2 3l-72 198-71-205q31-9 67-9zM542 323l24 79q17 46 17 76 0 22-6 37.5t-13 27.5q-9 14-16 27.5t-7 27.5q0 16 11 29t28 13q1 0 1.5-0.5t1.5-0.5q-31 29-71.5 45.5t-86.5 16.5q-63 0-114-29t-83-77h35t21 1l22 2q4 0 7-2.5t3-6-2-7-7-3.5q-4 0-8-1-10-2-19-2l86-255 52 155-37 100q-5 0-9 0.5t-8 1.5-8 1q-5 0-7 3t-1.5 7 3 6.5 7.5 2.5l22-2q9-1 20-1h39.5t20.5 1l22 2q5 0 7.5-2.5t3-6-1.5-7-7-3.5q-4 0-8-1-10-2-19-2zM543 263q53 30 85 83.5t32 119.5q0 31-7.5 59t-21.5 54q1-6 1.5-12t0.5-12q0-18-4-38.5t-14-46.5z" />
<glyph unicode="&#xe93a;" glyph-name="circlewikipedia" horiz-adv-x="850" d="M425 858q87 0 163-33t132.5-89.5 89.5-132.5 33-163-33-163-89.5-133-132.5-90-163-33-163 33-133 90-90 133-33 163 33 163 90 132.5 133 89.5 163 33zM686 622l-1 1h-108l-2-1v-11q0-1 2-3 1-1 3-1l9-1q8 0 11.5-2t6.5-5q7-5 2-21l-96-251-3 1-61 137q0 1 0.5 1.5t0.5 1.5v1l50 102q5 8 8.5 15t5.5 10q4 7 7.5 8.5t14.5 2.5q5 0 5 4v11l-1 1h-88l-2-1v-11q0-1 2-3 1-1 3-1l4-1q15 0 18-5 2-3 2.5-7.5t-4.5-15.5l-39-84-34 78q-8 19-9 25.5t12 8.5l7 1q4 0 4 4v11l-2 1h-93l-2-1v-11q0-4 7-4 6-1 9.5-2.5t6.5-5 6.5-11 9.5-20.5q1-2 2-5t3-7 4-9l36-78q1-3 3-7t3.5-8.5 4.5-10.5l-53-116-3 1q-24 55-44 103-9 21-17.5 42.5t-17 41.5-15.5 37-11 29q-3 10-3 15 0 10 16 10l12 1q5 0 5 4v10l-1 1h-118l-1-1v-11q0-3 7-3 19-2 24-7 4-4 14-27 11-30 27-69t33.5-80 34-80.5 28.5-69.5q6-16 14-17.5t19 18.5q5 10 12.5 26.5t16 35.5 17 38.5 16.5 37.5q7-18 15-37.5t16-38.5 14.5-35 11.5-27q8-17 16.5-18t16.5 18q6 14 14 34t17 43.5 19 49 20 49.5l48 120q6 18 16 26t32 10q4 0 4 4v11z" />
<glyph unicode="&#xe93b;" glyph-name="roundedfacebook" horiz-adv-x="850" d="M634 858q43 0 81-16.5t66.5-45 45-66.5 16.5-81v-418q0-43-16.5-81.5t-45-67-66.5-45-81-16.5h-419q-43 0-81 16.5t-66.5 45-45 67-16.5 81.5v418q0 43 16.5 81t45 66.5 66.5 45 81 16.5h419zM581 675h-88q-26 0-48-9t-38-23.5-25.5-33.5-9.5-38v-53h-78v-104h78v-210h105v210h78v104h-78v26q0 13 9.5 20t16.5 7h78v104z" />
<glyph unicode="&#xe93c;" glyph-name="roundedemberapp" horiz-adv-x="850" d="M611 441q0-10-1.5-20.5t-1.5-21.5q0-29-10-57.5t-30-53.5q-23-30-57-46t-83-18q-57 2-98.5 29.5t-61.5 79.5q0 7-7.5 13.5t-10.5 13.5q2 2 2.5 3t2.5 3v1q5 5 5.5 12.5t2.5 18.5q2 18 7 45.5t25 54.5q17 23 39.5 43t44.5 39q21 17 38 33t27 31q19-15 43-36t45-45 36.5-49 18.5-48l6-48zM570 312q14 18 22.5 39t13.5 42l-13-16-6 48q-3 23-18.5 48t-36.5 49-45 44.5-43 35.5q-10-15-27-30.5t-38-32.5q-22-19-44.5-39.5t-39.5-43.5q-20-26-25.5-53.5t-7.5-45.5q0-4-1-5 55-100 163-104 99 3 146 64zM634 858q43 0 81-16.5t66.5-45 45-66.5 16.5-81v-418q0-43-16.5-81.5t-45-67-66.5-45-81-16.5h-419q-43 0-81 16.5t-66.5 45-45 67-16.5 81.5v418q0 43 16.5 81t45 66.5 66.5 45 81 16.5h419zM424 204q69 2 111 27.5t64 61.5 28.5 77 6 75-5 54.5-3.5 15.5q2-8-0.5-16t-6.5-15q-4-8-10-16-5 35-32 72t-59 67q-37 35-82 68-1-16-18.5-34t-41.5-38.5-51-43.5-46-50q-16-22-23-44.5t-10-41.5-4-31.5-5-13.5q-7-3-14 2-4 2-7 6 18-61 45.5-97t57.5-54.5 58.5-24 47.5-6.5z" />
<glyph unicode="&#xe93d;" glyph-name="roundedcoroflot" horiz-adv-x="850" d="M634 858q43 0 81-16.5t66.5-45 45-66.5 16.5-81v-418q0-43-16.5-81.5t-45-67-66.5-45-81-16.5h-419q-43 0-81 16.5t-66.5 45-45 67-16.5 81.5v418q0 43 16.5 81t45 66.5 66.5 45 81 16.5h419zM225 595q-2-15 18.5-17t50.5 1q14 1 27-9t22.5-29 15-46 4.5-61q14 5 31 7-1 8-3.5 27.5t-9.5 42.5-20.5 46.5-35.5 40.5q12 1 29-1.5t37-14.5 43-35 48-62q5 2 9.5 3t9.5 3q-9 15-27.5 39.5t-43.5 47-56.5 35.5-65.5 5q1 12 0 23.5t-4.5 19.5-10 11-15.5-2q-10-6-13-11t-2.5-11 2-13 0.5-16q-1-10-7-12t-12.5-2-13-1.5-7.5-8.5zM406 207q21 0 40 8t33 22 22 33 8 40-8 40-22 33-33 22-40 8-40-8-33.5-22-22.5-33-8-40 8-40 22.5-33 33.5-22 40-8zM533 279q19 1 35.5 9t29 20.5 19.5 29.5 7 36q0 40-28 68t-68 28q-23 0-42.5-10t-33.5-27q38-14 61.5-47.5t23.5-75.5q0-18-4-31zM375 372q9 0 15.5-6.5t6.5-15.5q0-10-6.5-16.5t-15.5-6.5q-10 0-16.5 6.5t-6.5 16.5q0 9 6.5 15.5t16.5 6.5z" />
<glyph unicode="&#xe93e;" glyph-name="roundedappstore" horiz-adv-x="850" d="M634 858q43 0 81-16.5t66.5-45 45-66.5 16.5-81v-418q0-43-16.5-81.5t-45-67-66.5-45-81-16.5h-419q-43 0-81 16.5t-66.5 45-45 67-16.5 81.5v418q0 43 16.5 81t45 66.5 66.5 45 81 16.5h419zM163 398q0-10 12-10h53l66 104h-119q-12 0-12-9v-85zM252 265q11 7 0 13l-31 18q-10 5-12-6l-5-47q-1-5 1.5-6t6.5 1zM262 292q10-7 16 4l144 250q2 4 1 9t-6 7l-31 18q-4 2-9 1t-7-6l-143-249q-7-10 4-17zM501 388l-44 104h-31l-67-104h142zM549 371q9-5 14-3.5t11 4.5q7 2 14 10t2 19q-3 5-15 27t-27 50.5-30.5 57-26.5 46.5q-11 17-23.5 38.5t-23.5 40.5-20 30.5-13 9.5q-6-3-1.5-20.5t13.5-40.5 19.5-46 16.5-37 19-44 27.5-60.5 26.5-55 17-26.5zM589 306q7-10 19-5l12 8q5 2 6.5 7.5t-1.5 10.5l-15 28q-2 5-7 6.5t-10-0.5l-18-9q-5-2-6-7t2-10zM658 228q2 26-2 44-3 15-13 23.5t-30-2.5q-3-3-7.5-11t5.5-22q5-7 12.5-11t14.5-7 12.5-6 7.5-8zM686 483q0 9-12 9h-105l53-104h52q12 0 12 10v85z" />
<glyph unicode="&#xe93f;" glyph-name="circledelicious" horiz-adv-x="850" d="M425 861q87 0 163.5-33t133-90 89.5-133.5 33-163.5-33-163.5-89.5-133.5-133-90-163.5-33-163.5 33-133.5 90-90 133.5-33 163.5 33 163.5 90 133.5 133.5 90 163.5 33zM635 651h-210v-210h-210v-210h210v210h210v210z" />
<glyph unicode="&#xe940;" glyph-name="circlesharethis" horiz-adv-x="850" d="M425 858q87 0 163-33t132.5-89.5 89.5-132.5 33-163-33-163-89.5-133-132.5-90-163-33-163 33-133 90-90 133-33 163 33 163 90 132.5 133 89.5 163 33zM355 445l168 84q11-9 24.5-14.5t29.5-5.5q35 0 59 24t24 59-24 59-59 24-59-24-24-59v-5l-168-84q-11 9-24.5 14.5t-29.5 5.5q-35 0-59-24t-24-59 24-59 59-24q31 0 54 20l168-85v-4q0-35 24-59.5t59-24.5 59 24.5 24 59.5q0 34-24 58.5t-59 24.5q-16 0-29.5-5.5t-24.5-14.5l-168 84v10z" />
<glyph unicode="&#xe941;" glyph-name="roundedslashdot" horiz-adv-x="850" d="M634 858q43 0 81-16.5t66.5-45 45-66.5 16.5-81v-418q0-43-16.5-81.5t-45-67-66.5-45-81-16.5h-419q-43 0-81 16.5t-66.5 45-45 67-16.5 81.5v418q0 43 16.5 81t45 66.5 66.5 45 81 16.5h419zM346 231l183 418h-104l-183-418h104zM542 231q27 0 46.5 19t19.5 46-19.5 46-46.5 19-46-19-19-46 19-46 46-19z" />
<glyph unicode="&#xe942;" glyph-name="circleposterous" horiz-adv-x="850" d="M425 860q87 0 163-33t132.5-89.5 89.5-132.5 33-163-33-163-89.5-133-132.5-90-163-33-163 33-133 90-90 133-33 163 33 163 90 132.5 133 89.5 163 33zM457 314q31 0 61.5 12t54.5 36.5 39 62.5 15 90q0 42-11.5 76.5t-32.5 59-50 38.5-64 14q-90 0-132-71l-3-2h-5l-4 65h-54q1-27 2-56t1-64v-395h61v190l1 4h6l1-2q17-27 47-42.5t67-15.5zM447 656q52 0 84.5-40.5t32.5-104.5q0-69-32.5-109.5t-86.5-40.5q-38 0-67.5 23t-39.5 61q-3 12-3 29v66q0 12 4 28 10 39 40 63.5t68 24.5z" />
<glyph unicode="&#xe943;" glyph-name="roundedicondock" horiz-adv-x="850" d="M634 858q43 0 81-16.5t66.5-45 45-66.5 16.5-81v-418q0-43-16.5-81.5t-45-67-66.5-45-81-16.5h-419q-43 0-81 16.5t-66.5 45-45 67-16.5 81.5v418q0 43 16.5 81t45 66.5 66.5 45 81 16.5h419zM660 441q0 14-7 21-7 8-20 8h-3l-78-7q-16-2-19-10-1-2-0.5-5t5.5-7q14-14 27-18l7-3-4-6q-3-4-13-13l-62-52q-2-2-6-4.5t-8-2.5q-11 0-11 17v149l3 1q21 13 33.5 33t12.5 44q0 18-7.5 34.5t-20 28.5-29 19-35.5 7-36-7-29.5-19-20-28.5-7.5-34.5q0-25 13.5-46t36.5-33l3-1v-150q0-17-11-17-8 0-14 6l-66 56q-10 9-13 13l-4 6 7 3q13 4 27 18 5 4 5.5 7t-0.5 5q-3 8-19 10l-78 7h-3q-13 0-20-8-9-9-7-21l8-75q3-18 13-18 2 0 4.5 0.5t5.5 4.5q7 6 12 13.5t7 12.5l2 7 7-4q3-2 14-13l140-154q9-11 23-11 13 0 22 11l140 154q11 11 14 13l7 4 2-7q2-5 7-12.5t12-13.5q3-4 5.5-4.5t4.5-0.5q10 0 13 18zM425 640q23 0 39-16t16-38q0-23-16-38.5t-39-15.5-39.5 15.5-16.5 38.5q0 22 16.5 38t39.5 16z" />
<glyph unicode="&#xe944;" glyph-name="roundedidentica" horiz-adv-x="850" d="M468 451q-12-10-18-20-13-11-29.5-18t-35.5-7q-24 0-46 11l-71-29 22 85q-7 19-7 37 0 22 8 41t22 33 32.5 22 39.5 8 39.5-8 32-22 21.5-33 8-41q0-34-18-59zM634 858q43 0 81-16.5t66.5-45 45-66.5 16.5-81v-418q0-43-16.5-81.5t-45-67-66.5-45-81-16.5h-419q-43 0-81 16.5t-66.5 45-45 67-16.5 81.5v418q0 43 16.5 81t45 66.5 66.5 45 81 16.5h419zM579 281q25 13 40 37.5t15 53.5q0 22-8 41t-21.5 33-32 22-39.5 8q-1 0-2-0.5t-2-0.5q5 20 5 38 0 32-12 60.5t-32.5 49.5-48 33-58.5 12q-32 0-59.5-12t-47.5-33-32-49.5-12-60.5q0-34 12-62l-29-115 107 35q14-6 29-9.5t32-3.5q26 0 50 9 2-35 24-61.5t54-33.5l46-60zM533 428q22 0 37-15.5t15-38.5q0-16-7.5-28t-19.5-19l-14-40-20 34q-19 4-31 18.5t-12 34.5q0 15 8 29l6 6t5 7q15 12 33 12z" />
<glyph unicode="&#xe945;" glyph-name="roundednewsvine" horiz-adv-x="850" d="M634 858q43 0 81-16.5t66.5-45 45-66.5 16.5-81v-418q0-43-16.5-81.5t-45-67-66.5-45-81-16.5h-419q-43 0-81 16.5t-66.5 45-45 67-16.5 81.5v418q0 43 16.5 81t45 66.5 66.5 45 81 16.5h419zM451 403v103l61 45q10-5 19-5 15 0 25.5 11t10.5 26-10.5 26-26.5 11q-15 0-26-11t-11-26q0-2 1-2.5t1-2.5l-44-33v156h-53v-82l-44 33q0 2 0.5 3.5t0.5 3.5q0 15-10.5 26t-26.5 11q-15 0-26-11t-11-26q0-16 11-26.5t26-10.5q10 0 17 4l63-46v-103l-44 33q0 2 0.5 3t0.5 3q0 15-10.5 26t-26.5 11q-15 0-26-11t-11-26 11-26 26-11q9 0 17 5l63-47v-109l-44 33q0 2 0.5 3t0.5 3q0 15-10.5 26t-26.5 11q-15 0-26-11t-11-26q0-16 11-26.5t26-10.5q8 0 18 5l62-47v-110h53v37l61 45q7-6 19-6 15 0 25.5 11t10.5 26q0 16-10.5 26.5t-26.5 10.5q-15 0-26-10.5t-11-26.5q0-1 1-2t1-2l-44-33v110l61 45q9-6 19-6 15 0 25.5 11t10.5 26q0 16-10.5 26.5t-26.5 10.5q-15 0-26-10.5t-11-26.5q0-1 1-2t1-2z" />
<glyph unicode="&#xe946;" glyph-name="roundedimessage" horiz-adv-x="850" d="M634 858q43 0 81-16.5t66.5-45 45-66.5 16.5-81v-418q0-43-16.5-81.5t-45-67-66.5-45-81-16.5h-419q-43 0-81 16.5t-66.5 45-45 67-16.5 81.5v418q0 43 16.5 81t45 66.5 66.5 45 81 16.5h419zM425 241q48 0 91 16t75 43.5 50.5 65 18.5 79.5-18.5 79.5-50.5 65-75 43.5-91 16q-49 0-92-16t-75-43.5-50.5-65-18.5-79.5q0-51 26.5-94t70.5-72q-3-18-18-30.5t-36-14.5q16-3 34-3 48 0 79 22 37-12 80-12z" />
<glyph unicode="&#xe947;" glyph-name="roundedlinkedin" horiz-adv-x="850" d="M634 858q43 0 81-16.5t66.5-45 45-66.5 16.5-81v-418q0-43-16.5-81.5t-45-67-66.5-45-81-16.5h-419q-43 0-81 16.5t-66.5 45-45 67-16.5 81.5v418q0 43 16.5 81t45 66.5 66.5 45 81 16.5h419zM294 544h-105v-340h105v340zM242 571q21 0 36.5 15t15.5 37-15.5 37-36.5 15q-22 0-37.5-15t-15.5-37 15.5-37 37.5-15zM660 401q0 36-20 70.5t-52 52.5q-29 16-67.5 17t-69.5-13v16h-105v-340h105v208l43 21q8 4 22 4t21-5q6-3 12-13t6-18v-197h105v197z" />
<glyph unicode="&#xe948;" glyph-name="roundedmetacafe" horiz-adv-x="850" d="M634 858q43 0 81-16.5t66.5-45 45-66.5 16.5-81v-418q0-43-16.5-81.5t-45-67-66.5-45-81-16.5h-419q-43 0-81 16.5t-66.5 45-45 67-16.5 81.5v418q0 43 16.5 81t45 66.5 66.5 45 81 16.5h419zM465 222q7 20 13 38.5t8 24.5q-6 4-22.5 16t-33.5 26q-20 16-45 34h125q2 0 8 18t13 40q8 26 17 59 9-33 17-59 7-22 13.5-40t8.5-18h66l-105 314-85-255h-274zM660 342h-86l-26 80-26-80h-86l69-52-26-86 69 54 69-54-26 86z" />
<glyph unicode="&#xe949;" glyph-name="roundedmobileme" horiz-adv-x="850" d="M634 858q43 0 81-16.5t66.5-45 45-66.5 16.5-81v-418q0-43-16.5-81.5t-45-67-66.5-45-81-16.5h-419q-43 0-81 16.5t-66.5 45-45 67-16.5 81.5v418q0 43 16.5 81t45 66.5 66.5 45 81 16.5h419zM599 283q18 0 34 9.5t27.5 24.5 18.5 32.5 7 32.5q0 31-20 46t-41 22q2 7 3 14t1 15q0 24-10 45.5t-27 37.5-39.5 25.5-48.5 9.5q-42 0-74.5-23.5t-44.5-59.5q-21 26-53 26-30 0-51.5-24t-21.5-58v-5q-3 1-6.5 1h-6.5q-12 0-26.5-4t-27-13-21-22.5-8.5-32.5q0-18 7-36t18.5-32 27.5-22.5 34-8.5h349z" />
<glyph unicode="&#xe94a;" glyph-name="roundedaboutme" horiz-adv-x="850" d="M590 520q27 0 45-21 12-15 13-39h-118q1 27 19 43 17 17 41 17zM634 858q43 0 81-16.5t66.5-45 45-66.5 16.5-81v-418q0-43-16.5-81.5t-45-67-66.5-45-81-16.5h-419q-43 0-81 16.5t-66.5 45-45 67-16.5 81.5v418q0 43 16.5 81t45 66.5 66.5 45 81 16.5h419zM450 479q0 34-17 53-17 17-49 17-40 0-65-37-6 18-21 27-14 10-39 10-21 0-38-10-15-8-26-24v29h-32v-209h36v109q0 28 6 43 4 14 18 23 12 8 28 8 20 0 29-12 9-11 9-35v-136h36v122q0 33 14 47 16 14 37 14 13 0 22-6 8-4 13-15 3-9 3-30v-132h36v144zM686 440q0 51-27 80t-69 29q-44 0-71-29-28-29-28-82 0-51 27-79t74-28q37 0 60 17 24 18 33 50l-37 5q-9-23-22-33t-34-10q-26 0-44 18-19 18-20 53h158v9z" />
<glyph unicode="&#xe94b;" glyph-name="roundedsmugmug" horiz-adv-x="850" d="M634 858q43 0 81-16.5t66.5-45 45-66.5 16.5-81v-418q0-43-16.5-81.5t-45-67-66.5-45-81-16.5h-419q-43 0-81 16.5t-66.5 45-45 67-16.5 81.5v418q0 43 16.5 81t45 66.5 66.5 45 81 16.5h419zM560 650q-20 0-33.5-10.5t-13.5-25.5q0-14 13.5-24.5t33.5-10.5 33.5 10.5 13.5 24.5q0 15-13.5 25.5t-33.5 10.5zM348 650q-20 0-34-10.5t-14-25.5q0-14 14-24.5t34-10.5 33.5 10.5 13.5 24.5q0 15-13.5 25.5t-33.5 10.5zM398 178q52 0 93.5 19t73.5 48.5 55 65 37.5 68 21.5 57.5 7 34q0 13-5.5 20.5t-12.5 11.5q-8 4-17 6h-403q-3-1-7-4-3-3-7.5-8t-8.5-14q-22-44-27-96.5t13.5-99 63.5-77.5 123-31zM265 284q-12 20-17 43.5t-4 47.5 7.5 46 15.5 40h370q-3-12-11-34t-21.5-48-32.5-53.5-44.5-50-58-36.5-71.5-14q-17 0-35.5 2.5t-36.5 9-34 18-27 29.5z" />
<glyph unicode="&#xe94c;" glyph-name="roundedmyspace" horiz-adv-x="850" d="M634 858q43 0 81-16.5t66.5-45 45-66.5 16.5-81v-418q0-43-16.5-81.5t-45-67-66.5-45-81-16.5h-419q-43 0-81 16.5t-66.5 45-45 67-16.5 81.5v418q0 43 16.5 81t45 66.5 66.5 45 81 16.5h419zM506 675q-29 0-50-20.5t-21-49.5 21-50 50-21 49.5 21 20.5 50-20.5 49.5-49.5 20.5zM369 659q-23 0-38.5-16t-15.5-38q0-23 15.5-39t38.5-16 38.5 16 15.5 39q0 22-15.5 38t-38.5 16zM265 646q-17 0-29-12t-12-29 12-29.5 29-12.5 29.5 12.5 12.5 29.5-12.5 29-29.5 12zM608 411q0 20-8 37.5t-21.5 30.5-31.5 20.5-38 7.5-38-7.5-31-20.5q-6 23-25.5 38t-44.5 15q-17 0-31-7t-25-18q-4 16-17.5 26.5t-30.5 10.5q-21 0-36-14.5t-15-35.5v-80h79v-79h104v-104h210v180z" />
<glyph unicode="&#xe94d;" glyph-name="roundedyoutube" horiz-adv-x="850" d="M634 858q43 0 81-16.5t66.5-45 45-66.5 16.5-81v-418q0-43-16.5-81.5t-45-67-66.5-45-81-16.5h-419q-43 0-81 16.5t-66.5 45-45 67-16.5 81.5v418q0 43 16.5 81t45 66.5 66.5 45 81 16.5h419zM361 478q0-23 15-36 14-13 40-13 27 0 41 13 15 12 15 36v92q0 19-15 33-14 13-39 13-26 0-41-12-16-12-16-33v-93zM307 429h-118v-32h40v-188h38v188h40v32zM308 533l50 142h-44l-26-97h-3l-28 97h-43l51-146v-96h43v100zM419 371h-34v-123q-2-3-5-5l-6-4q-6-3-9-3-5 0-7 2t-2 9v124h-34v-136q0-14 6-21 6-8 17-8 9 0 20 6 9 4 20 15v-18h34v162zM542 332q0 20-9 31-7 10-24 10-9 0-16-4-8-3-14-11v71h-35v-220h35v12q3-4 6.5-6.5t7.5-4.5q7-3 18-3 15 0 23 9 8 10 8 26v90zM530 431q12 0 22 5t22 17v-20h38v179h-38v-136q-4-5-12-10-6-3-10-3-7 0-8 3-3 3-3 9v137h-38v-150q0-16 7-23 5-8 20-8zM660 327q0 24-13 36-12 12-36 12-23 0-37-13-14-14-14-35v-72q0-24 13-37 14-14 36-14 25 0 38 13 13 12 13 38v8h-35v-7q0-15-3-19-4-4-12-4-10 0-12 5-3 4-3 18v30h65v41zM610 347q8 0 11-5 4-4 4-14v-17h-30v17q0 9 3 14 5 5 12 5zM493 347q7 0 10-4 4-4 4-12v-84q0-8-3-11-3-4-9-4-4 0-8 2-5 2-8 6v101q4 4 7 5 2 1 7 1zM416 460q-8 0-11 4-5 3-5 11v97q0 5 5 10 4 3 11 3t13-3q4-4 4-10v-97q0-8-4-11-4-4-13-4z" />
<glyph unicode="&#xe94e;" glyph-name="roundeddribble" horiz-adv-x="850" d="M469 475q31 14 60.5 33t56.5 42q17-24 25.5-52t9.5-57q-38 9-75 9-15 0-31-1.5t-33-5.5l-6 16t-7 16zM634 858q43 0 81-16.5t66.5-45 45-66.5 16.5-81v-418q0-43-16.5-81.5t-45-67-66.5-45-81-16.5h-419q-43 0-81 16.5t-66.5 45-45 67-16.5 81.5v418q0 43 16.5 81t45 66.5 66.5 45 81 16.5h419zM425 204q48 0 91 18.5t75 50.5 50.5 75 18.5 92q0 48-18.5 91t-50.5 75-75 50.5-91 18.5q-49 0-92-18.5t-75-50.5-50.5-75-18.5-91q0-49 18.5-92t50.5-75 75-50.5 92-18.5zM496 406q28 5 50 5 37 0 71-10-8-41-32.5-75t-60.5-55q-4 35-11 69t-17 66zM561 580q-26-21-53-38.5t-56-30.5q-17 31-36 60.5t-42 57.5q12 3 24.5 5t26.5 2q38 0 73-14.5t63-41.5zM311 280q26 42 63.5 71.5t82.5 44.5q23-69 29-142-29-10-61-10-65 0-114 36zM444 433q-50-17-92-49t-71-77q-49 52-52 124 8-1 14-1h13q45 0 89.5 7.5t86.5 23.5q4-7 6.5-14t5.5-14zM415 496q-77-27-159-27h-13.5t-11.5 1q7 46 34.5 84t69.5 60q46-55 80-118z" />
<glyph unicode="&#xe94f;" glyph-name="roundeddiggalt" horiz-adv-x="850" d="M634 388h-26v78h26v-78zM634 858q43 0 81-16.5t66.5-45 45-66.5 16.5-81v-418q0-43-16.5-81.5t-45-67-66.5-45-81-16.5h-419q-43 0-81 16.5t-66.5 45-45 67-16.5 81.5v418q0 43 16.5 81t45 66.5 66.5 45 81 16.5h419zM294 597h-52v-79h-79v-183h131v262zM372 518h-52v-183h52v183zM372 597h-52v-53h52v53zM529 518h-131v-183h79v-26h-79v-52h131v261zM686 518h-131v-183h79v-26h-79v-52h131v261zM215 466h27v-78h-27v78zM477 388h-26v78h26v-78z" />
<glyph unicode="&#xe950;" glyph-name="roundedblogger" horiz-adv-x="850" d="M370 502q-12 0-20.5 8.5t-8.5 19.5q0 12 8.5 20t20.5 8h82q12 0 20.5-8t8.5-20q0-11-8.5-19.5t-20.5-8.5h-82zM634 858q43 0 81-16.5t66.5-45 45-66.5 16.5-81v-418q0-43-16.5-81.5t-45-67-66.5-45-81-16.5h-419q-43 0-81 16.5t-66.5 45-45 67-16.5 81.5v418q0 43 16.5 81t45 66.5 66.5 45 81 16.5h419zM689 478l-1 7-4 8-7 5q-3 3-12 3t-19 0.5-19.5 1.5-13.5 5q-7 6-8.5 16t-3.5 24-3.5 22-3 13-3.5 8-4 8q-8 16-21.5 30.5t-29.5 25-33 17-31 8.5h-104q-31 0-58-12t-47.5-32-32.5-47-12-58v-173q0-31 12-58t32.5-47.5 47.5-32 58-11.5h171q31 0 58 11.5t47 32 32 47.5 12 58zM538 388q11 0 19.5-8t8.5-20q0-11-8.5-19.5t-19.5-8.5h-168q-12 0-20.5 8.5t-8.5 19.5q0 12 8.5 20t20.5 8h168z" />
<glyph unicode="&#xe951;" glyph-name="roundedgowalla" horiz-adv-x="850" d="M277 280v-18.5t-2-20.5q-1-1-3-2t-7-1q-16 0-16 13 0 11 7.5 21t20.5 21v-13zM398 295q-7-10-22-13h-7l1 2q5 11 13.5 15.5t13.5 4.5h2q2-5-1-9zM292 604q16-17 20.5-27t3.5-13q0-2-4-4-2 0-3-0.5t-2-0.5q-7 0-11 9t-4 19v17zM634 858q43 0 81-16.5t66.5-45 45-66.5 16.5-81v-418q0-43-16.5-81.5t-45-67-66.5-45-81-16.5h-419q-43 0-81 16.5t-66.5 45-45 67-16.5 81.5v418q0 43 16.5 81t45 66.5 66.5 45 81 16.5h419zM679 220q5 11 7 26-5 5-9.5 8.5t-9.5 8.5q-5 4-8.5 7t-7.5 7q0 6-1 12l-2 12q-19 97-84.5 151t-185.5 74v5q3 22 6.5 48t4 50-3 45-13.5 34q-11 15-31 17h-4q-17 0-34-13t-28-55q-10 8-22 14t-26 6q-19 0-38-12-18-10-20-33 0-16 9.5-34t24-35.5 32-33.5 32.5-28q-12-8-28-21.5t-32-29-28-33-15-34.5q-5-26 10-45 15-17 39-17 8 0 20 3t27.5 12.5 33.5 27.5 38 47q4-14 2-30t-19-29l-11-7q-33-24-56-44.5t-23-49.5q0-17 11-27.5t29-10.5q11 0 21.5 4.5t13.5 14.5q5 15 5 32 7-2 15.5-3t17.5-3q-4-22-4-49.5t7-53.5h25q-8 23-8 51t4 51q8-1 18 1 27 5 39 24 8 14 3 30-5 17-25 17-12 0-26.5-8.5t-22.5-25.5q-2-3-3-5.5t-3-6.5q-9 1-17.5 2.5t-15.5 3.5q-8 2-15 3l-15 3q8 7 18 14t21 15l11 8q16 12 23 27.5t7 31-4 30-9 23.5l-9 19-12-18q-21-35-39.5-54.5t-33-29.5-25-12.5-14.5-2.5q-13 0-20 9-7 7-5 23 3 15 16 31.5t30 32.5 34 28.5 27 19.5l16 11-16 10q-17 12-35 28t-32.5 33-24 32.5-9.5 26.5q0 9 7 13 20 12 35.5 6.5t33.5-22.5q-2-15-2.5-26t-0.5-15q0-19 10-36t30-17q6 0 14 3 11 5 14.5 11t4.5 11q6 27-33 66l-11 11q2 10 5 21.5t8.5 21.5 12.5 16 17 5q10-2 14-8 7-10 9.5-28.5t1.5-41-4-46-6-41.5l-4-30 12-2q119-17 181.5-66.5t80.5-140.5q-4 2-7 3l-6 2q-16 5-35.5 8.5t-39.5 3.5q-66 0-89-47-13-26-16.5-56t3.5-55h25q-7 21-4.5 48.5t14.5 51.5q15 33 67 33 18 0 36.5-3.5t32.5-7.5q10-3 22-13-1-29-13.5-47t-27.5-28-27.5-13.5-13.5-3.5l-26-5 14-12h41q23 9 46 30.5t29 59.5q1 0 1-0.5t1-0.5q7-6 13.5-12.5t14.5-11.5z" />
<glyph unicode="&#xe952;" glyph-name="roundedviddler" horiz-adv-x="850" d="M634 858q43 0 81-16.5t66.5-45 45-66.5 16.5-81v-418q0-43-16.5-81.5t-45-67-66.5-45-81-16.5h-419q-43 0-81 16.5t-66.5 45-45 67-16.5 81.5v418q0 43 16.5 81t45 66.5 66.5 45 81 16.5h419zM546 414q24 0 44.5 9t36 24.5 24.5 36.5 9 46-9 46-24.5 37-36 25-44.5 9q-21 0-40-8.5t-34-23-25-33-13-38.5h-4q-3 20-13 38.5t-25 33-34 23-40 8.5q-24 0-46.5-9.5t-40-25.5-28-37.5-10.5-46.5 8.5-45.5 22.5-35.5 32-24 38-9h26v-47l-131 37v-159l131 41v-55h191l-56 183h91zM548 562q14 0 23.5-10t9.5-24-9.5-24-23.5-10q-13 0-22.5 10t-9.5 24 9.5 24 22.5 10zM318 562q14 0 23-10t9-24-9-24-23-10-23 10-9 24 9 24 23 10z" />
<glyph unicode="&#xe953;" glyph-name="roundedbehance" horiz-adv-x="850" d="M347 477q-6-4-13.5-7.5t-17.5-3.5h-48v78h41q11 0 19-2t15-5q8-3 11.5-11t3.5-19q0-22-11-30zM346 412q9-5 13.5-11.5t4.5-19.5q0-29-19-39-12-7-29-7h-48v79h65.5t12.5-2zM634 858q43 0 81-16.5t66.5-45 45-66.5 16.5-81v-418q0-43-16.5-81.5t-45-67-66.5-45-81-16.5h-419q-43 0-81 16.5t-66.5 45-45 67-16.5 81.5v418q0 43 16.5 81t45 66.5 66.5 45 81 16.5h419zM503 544h105v53h-105v-53zM412 328q13 23 13 50 0 26-12 46-11 18-33 27 14 8 22 18 13 17 13 46t-13 48q-21 32-74 34h-139v-314h130q11 0 21 1t19 3q19 5 32 16 7 5 11.5 11t9.5 14zM660 388q-1 9-1 17 0 7-0.5 14t-0.5 11q-2 14-6 24.5t-10 20.5q-14 23-34 33t-46 10q-44 0-71-30-27-32-27-89 0-61 30-88t70-27q23 0 41.5 9t32.5 25q8 11 13 20t6 23h-53q-2-14-4.5-14.5t-5.5-3.5q-6-5-13-8.5t-16-3.5q-17 0-29 9-9 6-14 17t-6 31h144zM562 466q18 0 30-12 7-6 10-13t4-27h-89q2 20 5.5 26t8.5 13q11 13 31 13z" />
<glyph unicode="&#xe954;" glyph-name="roundedtwitter" horiz-adv-x="850" d="M634 858q43 0 81-16.5t66.5-45 45-66.5 16.5-81v-418q0-43-16.5-81.5t-45-67-66.5-45-81-16.5h-419q-43 0-81 16.5t-66.5 45-45 67-16.5 81.5v418q0 43 16.5 81t45 66.5 66.5 45 81 16.5h419zM398 309q-20 0-36 16t-16 36v79h209q20 0 36.5 16t16.5 36-16.5 36-36.5 16h-209v79q0 20-16 36t-36 16-36-16-16-36v-262q0-39 13.5-68.5t35.5-49 50-29.5 57-10h157q20 0 36.5 16.5t16.5 36.5-16.5 36-36.5 16h-157z" />
<glyph unicode="&#xe955;" glyph-name="circlecoroflot" horiz-adv-x="850" d="M425 859q87 0 163-33t132.5-89.5 89.5-132.5 33-163q0-86-33-162t-89.5-133-132.5-90-163-33-163 33-132.5 90-89.5 133-33 162q0 87 33 163t89.5 132.5 132.5 89.5 163 33zM226 597q-3-15 18-17t51 0q14 1 27-8.5t22.5-28.5 15-46.5 4.5-60.5q13 4 30 6 0 8-2.5 27.5t-10 43-21 47-35.5 40.5q12 1 29-2t37-15 43-35 48-62q9 5 19 6-9 15-27.5 39.5t-43.5 47-56.5 36-65.5 4.5q1 12 0 23.5t-4.5 19.5-9.5 11-15-2q-11-6-13.5-11t-2-11 2-13 0.5-16q-2-9-7.5-11.5t-12.5-2.5-13-1-7-8zM406 209q21 0 40 8t33 22 22 33 8 40-8 40-22 33-33 22-40 8-40-8-33-22-22-33-8-40 8-40 22-33 33-22 40-8zM533 281q19 1 35.5 8.5t29 20.5 19.5 30 7 36q0 40-28 68t-68 28q-23 0-42.5-10.5t-33.5-27.5q38-14 61.5-47t23.5-75q0-18-4-31zM375 374q10 0 16.5-6.5t6.5-16.5q0-9-6.5-15.5t-16.5-6.5q-9 0-15.5 6.5t-6.5 15.5q0 10 6.5 16.5t15.5 6.5z" />
<glyph unicode="&#xe956;" glyph-name="roundedretweet" horiz-adv-x="850" d="M634 858q43 0 81-16.5t66.5-45 45-66.5 16.5-81v-418q0-43-16.5-81.5t-45-67-66.5-45-81-16.5h-419q-43 0-81 16.5t-66.5 45-45 67-16.5 81.5v418q0 43 16.5 81t45 66.5 66.5 45 81 16.5h419zM503 283l-78 78h-79v105h79l-131 131-131-131h79v-157q0-10 8-18t18-8h235zM686 414h-78v160q0 11-8 17t-19 6h-235l79-79h78v-104h-78l130-131z" />
<glyph unicode="&#xe957;" glyph-name="roundedpodcast" horiz-adv-x="850" d="M634 858q43 0 81-16.5t66.5-45 45-66.5 16.5-81v-418q0-43-16.5-81.5t-45-67-66.5-45-81-16.5h-419q-43 0-81 16.5t-66.5 45-45 67-16.5 81.5v418q0 43 16.5 81t45 66.5 66.5 45 81 16.5h419zM424 204q32 0 54.5 28t22.5 84q0 28-6.5 43t-17 22-24.5 8-29 1-29-1-24.5-8-17-22-6.5-43q0-56 22.5-84t54.5-28zM372 448q0-20 15-34.5t37-14.5 37 14.5 15 34.5-15 34-37 14-37-14-15-34zM589 421q0 2 0.5 4.5t0.5 4.5q0 32-13 62t-35.5 53.5-52.5 37.5-64 14q-35 0-65-14t-53-37.5-36-53.5-13-62q0-2 0.5-4.5t0.5-4.5q2 30 15.5 53t36 38.5 52 23.5 62.5 8 62-8 51-23.5 35.5-38.5 15.5-53zM685 430q0 51-20.5 95.5t-56 77.5-83 52.5-101.5 19.5-101.5-19.5-83-52.5-56-77.5-20.5-95.5v-10q2 49 23 87t56.5 63.5 82 39 99.5 13.5 99.5-13.5 81.5-39 56.5-63.5 23.5-87v10z" />
<glyph unicode="&#xe958;" glyph-name="circleappstore" horiz-adv-x="850" d="M424 859q87 0 163-33t133-89.5 90-132.5 33-163-33-163-90-133-133-90-163-33-163 33-132.5 90-89.5 133-33 163 33 163 89.5 132.5 132.5 89.5 163 33zM163 400q0-12 12-12h53l66 105h-119q-12 0-12-9v-84zM252 266q5 3 4.5 7t-4.5 6l-31 18q-10 5-12-6l-5-47q-1-5 1.5-6.5t6.5 1.5zM262 293q4-3 9-2t7 6l143 250q3 4 2 9t-6 7l-31 18q-11 5-16-5l-144-249q-5-10 5-17zM501 388l-44 105h-32l-66-105h142zM549 372q9-5 14-3.5t11 4.5q6 2 13.5 10t2.5 19q-3 5-15 27t-27 50.5-30.5 57-26.5 46.5q-11 17-23.5 38.5t-23.5 40-20 30.5-13 10q-6-3-1.5-20.5t13.5-40.5 19.5-46 16.5-37 19-44 27-60.5 26.5-55 17.5-26.5zM589 307q7-11 18-5l13 8q5 2 6 7.5t-1 10.5l-15 28q-2 5-7 6.5t-10-0.5l-18-9q-5-2-6-7t2-10zM658 229q2 26-2 44-4 15-13.5 23.5t-29.5-2.5q-3-3-7.5-11t5.5-22q5-7 12.5-11t14.5-7 12.5-6 7.5-8zM686 484q0 5-3.5 7t-8.5 2h-105l53-105h52q5 0 8.5 3.5t3.5 8.5v84z" />
<glyph unicode="&#xe959;" glyph-name="circleemberapp" horiz-adv-x="850" d="M611 442q0-10-1.5-20.5t-1.5-21.5q0-29-9.5-58t-29.5-54q-24-30-58-46t-83-18q-57 3-99 30t-62 80q0 6-7 12.5t-10 14.5q2 2 2.5 3t2.5 3h-1q5 5 6 13t2 19q2 18 7.5 45.5t25.5 54.5q17 23 39.5 43.5t44.5 38.5q21 18 38 33.5t27 30.5q19-15 43-36t45.5-45 37-49 17.5-48l6-48zM570 313q15 18 23.5 39t13.5 42l-14-17-6 49q-2 23-17.5 48t-37 49-45.5 45-43 36q-10-15-27-31t-38-33q-22-19-44.5-39.5t-39.5-43.5q-20-26-25.5-53.5t-7.5-45.5q-1-2-1-6 53-99 163-103 99 3 146 64zM424 860q87 0 163.5-33t133.5-90 90-133 33-163-33-163.5-90-133.5-133.5-90-163.5-33-163 33-133 90-90 133.5-33 163.5 33 163 90 133 133 90 163 33zM423 205q70 2 112 27.5t64 61.5 29 77 6 75-5 54.5-3 15.5q1-8-1.5-16t-6.5-15q-4-8-10-16-5 35-32 72.5t-59 67.5q-37 35-82 68-1-16-18.5-34t-41.5-39-51-44-46-50q-17-22-24-45t-10-41.5-4-31-4-13.5q-6-2-14 2-4 2-7 5 18-61 45.5-96.5t57.5-54 58-24 47-6.5z" />
<glyph unicode="&#xe95a;" glyph-name="roundedwindows" horiz-adv-x="850" d="M634 858q43 0 81-16.5t66.5-45 45-66.5 16.5-81v-418q0-43-16.5-81.5t-45-67-66.5-45-81-16.5h-419q-43 0-81 16.5t-66.5 45-45 67-16.5 81.5v418q0 43 16.5 81t45 66.5 66.5 45 81 16.5h419zM245 489q42 16 79 16 26 0 46.5-8.5t36.5-18.5l43 145q-7 4-22 11.5t-28 10.5q-15 4-35 4-18-1-37.5-5t-42.5-13zM266 311q28 0 48.5-8.5t37.5-19.5q4 13 10.5 34t12.5 43 11.5 41 8.5 29q-4 2-8 5t-8 5q-34 17-64 17-5 0-8-1-20-2-36.5-5.5t-27.5-8.5l-6-2t-7-2l-41-143q42 16 77 16zM603 389q-39-13-76-13-34 0-57 8.5t-38 19.5l-42-144q5-3 14.5-7.5t21.5-9.5 25-8.5 25-3.5q39 0 88 20zM660 583q-41-15-79-15-32 0-55 8.5t-38 19.5l-42-145q41-28 91-28 41 0 80 19v1h2z" />
<glyph unicode="&#xe95b;" glyph-name="circlefacebook" horiz-adv-x="850" d="M424 859q87 0 163.5-33t133.5-90 90-133 33-163-33-163.5-90-133.5-133.5-90-163.5-33-163 33-133 90-90 133.5-33 163.5 33 163 90 133 133 90 163 33zM582 676h-89q-26 0-48-9t-38.5-24-25.5-34-9-38v-53h-79v-104h79v-210h105v210h78v104h-78v27q0 12 9.5 19t16.5 7h79v105z" />
<glyph unicode="&#xe95c;" glyph-name="roundedsquidoo" horiz-adv-x="850" d="M634 858q43 0 81-16.5t66.5-45 45-66.5 16.5-81v-418q0-43-16.5-81.5t-45-67-66.5-45-81-16.5h-419q-43 0-81 16.5t-66.5 45-45 67-16.5 81.5v418q0 43 16.5 81t45 66.5 66.5 45 81 16.5h419zM524 204q25 0 51 14t46.5 37.5 31 55 5.5 67.5-22 57-37.5 32-41 14.5-32.5 4.5q-25 1-21 23.5t25 58.5q7 13 9 29t-2.5 30.5-14.5 27-26 18.5h-54q14 0 25.5-12t19.5-27 2.5-31-15.5-29q-12-16-30-30-1 8-7 24t-19.5 35-35 38-53.5 32h-42q-3 0-6 1t-7 1q16-16 33.5-27t31.5-19q16-9 24.5-25.5t12.5-33.5q4-19 5-40-13 0-28 4-14 3-31.5 8.5t-38.5 14.5q-16 7-25 18.5t-14.5 25-9 28.5-8.5 30q-8-6-14-13t-11-15q3-8 5.5-17.5t5.5-20.5q9-38 30.5-64t44.5-43q26-19 58-31-26-6-52-10-22-4-45-6.5t-40-0.5q-6 1-12 3.5t-6 6.5v-55q29-8 66-6t72 4q27 1 37-9.5t12.5-26 2.5-34.5 7-36q19-47 54.5-64t83.5-17zM554 442q18-6 31-18.5t20-29 7.5-35.5-6.5-38-20-34-29-24-34-11.5-36 3.5-31 18-20 28.5-8 35.5 6 39q7 19 20 34t29 24 34.5 11.5 36.5-3.5zM542 305q17 0 28.5 12.5t11.5 30.5q0 15-8.5 26.5t-22.5 15.5q-3-15-12-21-6-5-15-5.5t-18 0.5q-3-8-3-16 0-18 11-30.5t28-12.5z" />
<glyph unicode="&#xe95d;" glyph-name="circleslashdot" horiz-adv-x="850" d="M425 858q87 0 163-33t132.5-89.5 89.5-132.5 33-163-33-163-89.5-133-132.5-90-163-33-163 33-133 90-90 133-33 163 33 163 90 132.5 133 89.5 163 33zM529 649h-104l-183-418h104zM542 231q27 0 46.5 19t19.5 46-19.5 46-46.5 19-46-19-19-46 19-46 46-19z" />
<glyph unicode="&#xe95e;" glyph-name="roundedspotify" horiz-adv-x="850" d="M634 858q43 0 81-16.5t66.5-45 45-66.5 16.5-81v-418q0-43-16.5-81.5t-45-67-66.5-45-81-16.5h-419q-43 0-81 16.5t-66.5 45-45 67-16.5 81.5v418q0 43 16.5 81t45 66.5 66.5 45 81 16.5h419zM194 637q-14-9-14-24 0-12 8.5-20.5t20.5-8.5q2 0 3 0.5t3 0.5q48 19 98.5 29t104.5 10 104.5-10 97.5-29q2 0 3.5-0.5t3.5-0.5q12 0 20 8.5t8 20.5q0 18-16 24-51 20-106.5 31t-114.5 11q-60 0-116-11t-108-31zM418 532q48 0 93.5-10t87.5-28q2 0 2.5-0.5t2.5-0.5q5 0 9 2.5t7 5.5l3 12q0 9-6 14-46 20-95.5 31t-103.5 11-103.5-11-95.5-31q-7-7-7-14l4-11q5-8 15-8 5 0 7 1 85 37 180 37zM591 416q4 8 0 15.5t-10 9.5q-37 19-78 27.5t-85 8.5q-89 0-166-37-3-2-7-7.5t0-15.5q4-11 10-12t10 1q73 34 153 34 40 0 77-8.5t72-23.5q17-8 24 8zM617 200q20 0 37.5 7.5t31.5 19.5q-18 35-45 64t-60.5 49.5-72.5 32-81 11.5q-44 0-84-12t-74.5-34-61.5-53-44-68q25-17 55-17h64q25 34 62.5 54t82.5 20 83-20 62-54h45z" />
<glyph unicode="&#xe95f;" glyph-name="circlenewsvine" horiz-adv-x="850" d="M424 860q87 0 163-33t133-89.5 90-132.5 33-163-33-163-90-133-133-90-163-33-163 33-132.5 90-89.5 133-33 163 33 163 89.5 132.5 132.5 89.5 163 33zM450 405v103l62 45q10-5 19-5 15 0 25.5 11t10.5 26-11 26-26 11-26-11-11-26q0-1 2-5l-45-33v156h-52v-82l-45 33q2 4 2 7 0 15-11 26t-26 11q-16 0-26.5-11t-10.5-26q0-16 11-26.5t26-10.5q9 0 17 4l63-46v-103l-45 33q2 4 2 6 0 15-11 26t-26 11q-16 0-26.5-11t-10.5-26 11-26 26-11q9 0 17 5l63-47v-109l-44 33q0 2 0.5 3t0.5 3q0 15-11 26t-26 11q-16 0-26.5-11t-10.5-26q0-16 11-26.5t26-10.5q9 0 17 5l63-47v-110h52v37l62 45q7-6 19-6 15 0 25.5 11t10.5 26q0 16-11 26.5t-26 10.5-26-10.5-11-26.5q0-2 2-4l-45-33v110l62 45q7-6 19-6 15 0 25.5 11t10.5 26q0 16-11 26.5t-26 10.5-26-10.5-11-26.5q0-2 2-4z" />
<glyph unicode="&#xe960;" glyph-name="circleicondock" horiz-adv-x="850" d="M424 641q23 0 39.5-16t16.5-38q0-23-16.5-38.5t-39.5-15.5-39 15.5-16 38.5q0 22 16 38t39 16zM424 859q87 0 163-33t133-89.5 90-132.5 33-163-33-163-90-133-133-90-163-33-163 33-132.5 90-89.5 133-33 163 33 163 89.5 132.5 132.5 89.5 163 33zM659 442q2 13-6 21-7 8-20 8h-4l-77-7q-16-2-19-10-1-2-0.5-5t5.5-7q13-14 27-18l7-3-4-6q-3-5-14-13l-61-52q-3-2-6.5-4.5t-7.5-2.5q-11 0-11 17v149l3 1q21 13 33 33t12 44q0 18-7 34.5t-19.5 28.5-29.5 19-36 7-35.5-7-29-19-20-28.5-7.5-34.5q0-25 13.5-46t36.5-32l3-2v-150q0-17-11-17-8 0-14 6l-66 56q-10 9-13 13l-5 6 8 3q13 4 27 18 7 7 4 12-2 8-18 10l-78 7h-3q-13 0-20-8-9-9-7-21l8-75q3-18 13-18 2 0 4.5 0.5t5.5 4.5q7 6 12 13.5t7 12.5l2 7 7-4q2-2 5.5-5t8.5-8l140-154q9-11 22-11 14 0 23 11l140 154q7 9 14 13l6 4 3-7q2-5 7-12.5t11-13.5q4-4 6.5-4.5t4.5-0.5q4 0 7.5 4t4.5 14z" />
<glyph unicode="&#xe961;" glyph-name="circleidentica" horiz-adv-x="850" d="M468 452q-12-10-18-20-14-11-30-18t-35-7q-24 0-46 11l-71-29 22 85q-7 19-7 37 0 22 8 41t22 33 32.5 22 39.5 8 39.5-8 32-22 21.5-33 8-41q0-17-5-31.5t-13-27.5zM424 859q87 0 163-33t133-89.5 90-132.5 33-163-33-163-90-133-133-90-163-33-163 33-132.5 90-89.5 133-33 163 33 163 89.5 132.5 132.5 89.5 163 33zM579 282q24 13 39 37.5t15 53.5q0 22-8 41t-21.5 33-31.5 22-39 8q-2 0-2.5-0.5t-1.5-0.5q4 16 4 38 0 32-12 60.5t-32 49.5-48 33-59 12-58.5-12-48-33-32.5-49.5-12-60.5q0-31 13-62l-29-115 107 35q31-13 60-13 27 0 51 9 2-35 24-61.5t54-33.5l46-60zM533 429q22 0 37-15.5t15-38.5q0-16-7.5-28t-19.5-19l-15-40-20 34q-18 4-30.5 18.5t-12.5 34.5q0 15 9 29 3 3 5.5 6t5.5 7q15 12 33 12z" />
<glyph unicode="&#xe962;" glyph-name="circleimessage" horiz-adv-x="850" d="M424 857q87 0 163-33t133-89.5 90-132.5 33-163-33-163-90-133-133-90-163-33-163 33-132.5 90-89.5 133-33 163 33 163 89.5 132.5 132.5 89.5 163 33zM424 240q49 0 92 16t75 43.5 50.5 65 18.5 79.5-18.5 79.5-50.5 65-75 43.5-92 16-91.5-16-74.5-43.5-50.5-65-18.5-79.5q0-51 26-94t71-72q-3-18-18.5-30.5t-35.5-14.5q16-3 34-3 46 0 79 22 37-12 79-12z" />
<glyph unicode="&#xe963;" glyph-name="circlemobileme" horiz-adv-x="850" d="M424 859q87 0 163-33t133-89.5 90-132.5 33-163-33-163-90-133-133-90-163-33-163 33-132.5 90-89.5 133-33 163 33 163 89.5 132.5 132.5 89.5 163 33zM599 284q18 0 34 9.5t27.5 24.5 18.5 32.5 7 32.5q0 31-20 46t-42 22q4 12 4 29 0 24-9.5 45.5t-26.5 37.5-39.5 25.5-48.5 9.5q-42 0-74.5-23.5t-44.5-59.5q-21 26-53 26-31 0-52-24t-21-58v-5q-5 1-13 1-12 0-26.5-4t-27-13-21-22.5-8.5-32.5q0-18 7-36t18.5-32 27.5-22.5 34-8.5h349z" />
<glyph unicode="&#xe964;" glyph-name="circlemetacafe" horiz-adv-x="850" d="M424 859q87 0 163-33t133-89.5 90-132.5 33-163-33-163-90-133-133-90-163-33-163 33-132.5 90-89.5 133-33 163 33 163 89.5 132.5 132.5 89.5 163 33zM465 223q6 20 12 38.5t8 24.5q-5 4-22 16t-34 26q-21 16-45 34h125q2 0 8.5 18t13.5 40q8 26 17 59 9-33 17-59 7-22 13.5-40t8.5-18h66l-105 314-85-255h-274zM591 291l69 52h-86l-26 80-27-80h-85l69-52-26-86 69 54 69-54z" />
<glyph unicode="&#xe965;" glyph-name="circlelinkedin" horiz-adv-x="850" d="M424 857q87 0 163-33t133-89.5 90-132.5 33-163-33-163-90-133-133-90-163-33-163 33-132.5 90-89.5 133-33 163 33 163 89.5 132.5 132.5 89.5 163 33zM294 543h-105v-340h105v340zM241 570q22 0 37.5 15t15.5 37-15.5 37-37.5 15-37-15-15-37 15-37 37-15zM660 400q0 36-20 70.5t-52 52.5q-29 16-67.5 17t-70.5-13v16h-104v-340h104v208l44 21q8 4 21.5 4t21.5-5q6-3 12-13t6-18v-197h105v197z" />
<glyph unicode="&#xe966;" glyph-name="roundedamazon" horiz-adv-x="850" d="M634 858q43 0 81-16.5t66.5-45 45-66.5 16.5-81v-418q0-43-16.5-81.5t-45-67-66.5-45-81-16.5h-419q-43 0-81 16.5t-66.5 45-45 67-16.5 81.5v418q0 43 16.5 81t45 66.5 66.5 45 81 16.5h419zM465 598q6-9 6.5-20t0.5-22v-8q-9-1-20-1.5t-22-2.5q-17-2-33-5.5t-30-10.5q-27-12-43.5-36t-16.5-59q0-45 24.5-67.5t59.5-22.5q21 0 39 5 28 9 53 37 8-11 13-18.5t19-19.5q8-3 14 1 8 8 21.5 19t21.5 19q5 5 1 15-8 11-15 22.5t-7 31.5v91q0 29-2 54.5t-22 45.5q-17 16-41 22.5t-44 6.5h-12q-18-1-36.5-6t-34-15.5-27-27-15.5-40.5q-2-6 1-8.5t6-3.5l55-7q8 1 10 11 3 17 15 25t26 10h4q9 0 17.5-3.5t13.5-11.5zM636 272q7 5 3 11t-12 3q-3-2-6.5-3t-6.5-3q-46-18-92.5-27t-91.5-9q-71 0-137 19t-122 52q-5 3-7.5-0.5t2.5-7.5q51-48 117-75.5t141-27.5q48 0 98 13.5t92 39.5q6 4 11.5 7t10.5 8zM686 310q0 6-2 10-4 5-25.5 7t-44.5-5q-13-5-23-12-4-2-3.5-5t4.5-3q5 1 10.5 1.5t11.5 1.5q14 2 27.5 1t18.5-6q3-3 1.5-11.5t-4.5-19-6.5-20.5-6.5-17q-2-4 1-5t7 2q17 15 25 39t9 39v3zM389 443q0 24 12 36.5t29 17.5q10 2 20.5 3t21.5 1v-12q0-17-1-31.5t-9-29.5q-11-22-32-27-1 0-3-0.5t-4-0.5q-17 0-25.5 12t-8.5 31z" />
<glyph unicode="&#xe967;" glyph-name="roundedmeetup" horiz-adv-x="850" d="M634 858q43 0 81-16.5t66.5-45 45-66.5 16.5-81v-418q0-43-16.5-81.5t-45-67-66.5-45-81-16.5h-419q-43 0-81 16.5t-66.5 45-45 67-16.5 81.5v418q0 43 16.5 81t45 66.5 66.5 45 81 16.5h419zM272 373q-6 15-10 32.5t-7 35.5l-10 44t-13 40h-3q-7 0-10 1-2 0-5 0.5t-5 0.5h-3q-13-17-19-41.5t-11-48.5l-12 24q-5 10-10.5 20.5t-10.5 18.5h-7q-15 0-24-4l-1-21q-1-27 0-51t8-46q1-1 5-1 8 0 14.5 3t9.5 5q1 11-2 24 0 3-0.5 6t1.5 7q10-13 17-26 3-5 5.5-9t4.5-8h5q3 0 6 0.5t6 0.5q3 1 12 1l2-1q4 9 4.5 20.5t0.5 23.5q1 11 1.5 22t5.5 19q5-25 12.5-48.5t16.5-48.5q3 0 6.5 1t7.5 2q6 2 8 2h4zM319 358q10 0 20.5 2.5t18.5 5.5q-5 6-11 6-4 0-12-2-8-3-13-3-2 0-3 1-6 0-11 7-8 13-2 35 5-1 11.5-2t14.5-1h9q4 15 2.5 34t-4.5 31q-2 0-8 2-8 3-15 3h-3q-14-2-23.5-19t-11.5-36q-2-18 2.5-36.5t21.5-25.5q4-1 8-1.5t9-0.5zM404 361q19 0 29 10-2 6-10 8-6-11-19-11t-22 12q-8 11-2 25l10-2t10-1q6 0 14 2-1 11 0 20t3 18q1 7 2 14.5t1 16.5q-14 11-28 12-38-29-36-94 2-14 17-22t31-8zM499 425q7 1 13 1.5t9 3.5q-5 3-8 8l-8.5 8.5t-9.5 5.5q-2 0-2-5 0-7-5-7h-3v1q1 10 0.5 21.5t-1.5 24.5q-1 18-1.5 36t2.5 33q-4 5-10.5 9.5t-17.5 4.5q-3 0-3 1-6-19-4.5-41t4.5-44q2-13 2.5-25t-1.5-23q-6 0-9 1h-7q-6 0-9-3-2-4-2-9 5-3 12-4t15-1l6-1q0-8 0.5-14t1.5-13q0-9 0.5-18.5t0.5-20.5h8q4 1 13 1v15t-1 14q0 10-0.5 19t0.5 19q5 2 15 2zM601 395q6 10 10.5 20.5t2.5 27.5q-5 4-10.5 8t-12.5 4h-4l-1-7q0-10-0.5-21t-3-21-7.5-17.5-14-10.5q-2 11-2.5 23.5t-1.5 24.5v20q-2 1-3.5 2t-3.5 2q-5 3-9 5t-11 3q-6-66 13-87 7-8 19-8 9 0 18 3l2 4q3 5 6 8.5t8 7.5q1 3 5 9zM730 417q6 12 8.5 30t-8.5 40q-20 12-35 12-20 0-35-18-8-9-12.5-22t-7.5-26.5-4-26.5-2-22q-2-1-4-1-7-2-8-4 8-9 10-23.5t4-28.5q2-12 3-23t5-19q2-1 10-1h7q7 0 10-1-5 14-7 33t0 46q21 5 39 20t27 35zM701 477q8-13 7-25.5t-4-20.5q-5-14-15.5-25t-24.5-15q5 23 12 47t23 39l1 2zM311 422q-1 1-3 1h-4l1 2q1 16 12 28 2-8 2.5-16t-1.5-14l-2-1h-5zM388 415q-5 0-6 3 0 8 2 13.5t4 11.5q2 4 4 10l2 4 1-4q2-8 1.5-19t-3.5-19h-5z" />
<glyph unicode="&#xe968;" glyph-name="roundedtumblr" horiz-adv-x="850" d="M634 858q43 0 81-16.5t66.5-45 45-66.5 16.5-81v-418q0-43-16.5-81.5t-45-67-66.5-45-81-16.5h-419q-43 0-81 16.5t-66.5 45-45 67-16.5 81.5v418q0 43 16.5 81t45 66.5 66.5 45 81 16.5h419zM581 304q-38-23-75-23-21 0-37 9-13 8-18 21-2 6-1 18t1 33v130h104v79h-104v104h-76q-4-35-17-60-13-24-34-40-11-9-26.5-15t-29.5-11v-57h78v-175q0-26 3-45.5t20-35.5q8-8 19.5-13.5t24.5-9.5q14-5 25.5-7t28.5-2q30 0 56 6 14 3 28 8t30 12v74z" />
<glyph unicode="&#xe969;" glyph-name="circlediggalt" horiz-adv-x="850" d="M633 388h-26v79h26v-79zM424 859q87 0 163-33t133-89.5 90-132.5 33-163-33-163-90-133-133-90-163-33-163 33-132.5 90-89.5 133-33 163 33 163 89.5 132.5 132.5 89.5 163 33zM294 598h-53v-79h-78v-183h131v262zM372 519h-52v-183h52v183zM372 598h-52v-53h52v53zM529 519h-131v-183h79v-26h-79v-52h131v261zM686 519h-131v-183h78v-26h-78v-52h131v261zM215 467h26v-79h-26v79zM477 388h-27v79h27v-79z" />
<glyph unicode="&#xe96a;" glyph-name="circleyoutube" horiz-adv-x="850" d="M610 347q8 0 11-5 4-4 4-14v-17h-30v17q0 9 3 14 5 5 12 5zM493 347q7 0 10-4 4-4 4-12v-84q0-8-3-11-3-4-9-4-4 0-8 2-5 2-8 6v101q4 4 7 5 2 1 7 1zM425 858q87 0 163-33t132.5-89.5 89.5-132.5 33-163-33-163-89.5-133-132.5-90-163-33-163 33-133 90-90 133-33 163 33 163 90 132.5 133 89.5 163 33zM307 429h-118v-32h40v-188h38v188h40v32zM308 533l50 142h-44l-26-97h-3l-28 97h-43l51-146v-96h43v100zM419 371h-34v-123q-2-3-5-5l-6-4q-6-3-9-3-5 0-7 2t-2 9v124h-34v-136q0-14 6-21 6-8 17-8 9 0 20 6 9 4 20 15v-18h34v162zM416 429q27 0 41 13 15 12 15 36v92q0 19-15 33-14 13-39 13-26 0-41-12-16-12-16-33v-93q0-23 15-36 14-13 40-13zM542 332q0 20-9 31-7 10-24 10-9 0-16-4-8-3-14-11v71h-35v-220h35v12q3-4 6.5-6.5t7.5-4.5q7-3 18-3 15 0 23 9 8 10 8 26v90zM530 431q12 0 22 5t22 17v-20h38v179h-38v-136q-4-5-12-10-6-3-10-3-7 0-8 3-3 3-3 9v137h-38v-150q0-16 7-23 5-8 20-8zM660 327q0 24-13 36-12 12-36 12-23 0-37-13-14-14-14-35v-72q0-24 13-37 14-14 36-14 25 0 38 13 13 12 13 38v8h-35v-7q0-15-3-19-4-4-12-4-10 0-12 5-3 4-3 18v30h65v41zM416 585q7 0 13-3 4-4 4-10v-97q0-8-4-11-4-4-13-4-8 0-11 4-5 3-5 11v97q0 5 5 10 4 3 11 3z" />
<glyph unicode="&#xe96b;" glyph-name="circledribble" horiz-adv-x="850" d="M424 859q87 0 163-33t133-89.5 90-132.5 33-163-33-163-90-133-133-90-163-33-163 33-132.5 90-89.5 133-33 163 33 163 89.5 132.5 132.5 89.5 163 33zM424 205q49 0 92 18.5t75 50.5 50.5 75 18.5 92-18.5 91.5-50.5 74.5-75 50.5-92 18.5q-48 0-91-18.5t-75-50.5-50.5-74.5-18.5-91.5 18.5-92 50.5-75 75-50.5 91-18.5zM444 434q-51-17-92.5-49t-71.5-77q-47 52-52 124 8-1 14.5-1h13.5q92 0 176 31l6-14zM469 477q63 28 117 74 34-49 34-109-38 9-74 9-33 0-64-7-3 8-6 16.5t-7 16.5zM310 281q26 42 64 71.5t83 44.5q11-34 18-69.5t11-72.5q-29-10-62-10-63 0-114 36zM495 407q28 5 51 5 37 0 70-10-8-41-32-75t-60-55q-7 68-29 135zM561 581q-26-21-53-38.5t-56-30.5q-17 31-36.5 60.5t-42.5 57.5q24 7 51 7 39 0 74-14.5t63-41.5zM415 497q-77-27-159-27h-13.5t-11.5 1q7 46 34 84t69 60q47-54 81-118z" />
<glyph unicode="&#xe96c;" glyph-name="circlewindows" horiz-adv-x="850" d="M425 858q87 0 163-33t132.5-89.5 89.5-132.5 33-163-33-163-89.5-133-132.5-90-163-33-163 33-133 90-90 133-33 163 33 163 90 132.5 133 89.5 163 33zM245 489q42 16 79 16 26 0 46.5-8.5t36.5-18.5l43 145q-7 4-22 11.5t-28 10.5q-15 4-35 4-18-1-37.5-5t-42.5-13zM266 311q28 0 48.5-8.5t37.5-19.5q4 13 10.5 34t12.5 43 11.5 41 8.5 29q-4 2-8 5t-8 5q-34 17-64 17-5 0-8-1-20-2-36.5-5.5t-27.5-8.5l-6-2t-7-2l-41-143q42 16 77 16zM603 389q-39-13-76-13-34 0-57 8.5t-38 19.5l-42-144q5-3 14.5-7.5t21.5-9.5 25-8.5 25-3.5q39 0 88 20zM660 583q-41-15-79-15-32 0-55 8.5t-38 19.5l-42-145q41-28 91-28 41 0 80 19v1h2z" />
<glyph unicode="&#xe96d;" glyph-name="circleviddler" horiz-adv-x="850" d="M548 562q14 0 23.5-10t9.5-24-9.5-24-23.5-10q-13 0-22.5 10t-9.5 24 9.5 24 22.5 10zM425 858q87 0 163-33t132.5-89.5 89.5-132.5 33-163-33-163-89.5-133-132.5-90-163-33-163 33-133 90-90 133-33 163 33 163 90 132.5 133 89.5 163 33zM546 414q24 0 44.5 9t36 24.5 24.5 36.5 9 46-9 46-24.5 37-36 25-44.5 9q-21 0-40-8.5t-34-23-25-33-13-38.5h-4q-3 20-13 38.5t-25 33-34 23-40 8.5q-24 0-46.5-9.5t-40-25.5-28-37.5-10.5-46.5 8.5-45.5 22.5-35.5 32-24 38-9h26v-47l-131 37v-159l131 41v-55h191l-56 183h91zM318 562q14 0 23-10t9-24-9-24-23-10-23 10-9 24 9 24 23 10z" />
<glyph unicode="&#xe96e;" glyph-name="circletwitter" horiz-adv-x="850" d="M425 858q87 0 163-33t132.5-89.5 89.5-132.5 33-163-33-163-89.5-133-132.5-90-163-33-163 33-133 90-90 133-33 163 33 163 90 132.5 133 89.5 163 33zM398 309q-20 0-36 16t-16 36v79h209q20 0 36.5 16t16.5 36-16.5 36-36.5 16h-209v79q0 20-16 36t-36 16-36-16-16-36v-262q0-39 13.5-68.5t35.5-49 50-29.5 57-10h157q20 0 36.5 16.5t16.5 36.5-16.5 36-36.5 16h-157z" />
<glyph unicode="&#xe96f;" glyph-name="roundedgithub" horiz-adv-x="850" d="M412 327q26 0 44.5-12.5t18.5-29.5q0-18-18.5-30.5t-44.5-12.5q-27 0-45.5 12.5t-18.5 30.5q0 17 18.5 29.5t45.5 12.5zM404 505q-23 0-39.5 16t-16.5 39 16.5 39 39.5 16 39-16 16-39-16-39-39-16zM634 858q43 0 81-16.5t66.5-45 45-66.5 16.5-81v-418q0-43-16.5-81.5t-45-67-66.5-45-81-16.5h-419q-43 0-81 16.5t-66.5 45-45 67-16.5 81.5v418q0 43 16.5 81t45 66.5 66.5 45 81 16.5h419zM411 174q30 0 56 9t45.5 24 31 35 11.5 43q0 22-11 42t-30.5 35-45.5 24-56 9q-3 0-6-0.5t-6-0.5q-2 5-3 11.5t-1 12.5q0 7 1 15.5t3 8.5h4q25 0 46.5 9.5t37.5 25.5 25.5 37.5 9.5 45.5q0 11-4.5 24.5t-10.5 19.5l41 23v78l-86-47q-14 10-29 15t-34 5q-25 0-46.5-9.5t-37.5-25.5-25-37.5-9-45.5q0-28 12.5-51.5t32.5-39.5q-12-24-12-51 0-12 2.5-23.5t7.5-22.5q-26-15-41.5-38t-15.5-49q0-23 11-43t30.5-35 45.5-24 56-9z" />
<glyph unicode="&#xe970;" glyph-name="roundeddaytum" horiz-adv-x="850" d="M634 858q43 0 81-16.5t66.5-45 45-66.5 16.5-81v-418q0-43-16.5-81.5t-45-67-66.5-45-81-16.5h-419q-43 0-81 16.5t-66.5 45-45 67-16.5 81.5v418q0 43 16.5 81t45 66.5 66.5 45 81 16.5h419zM268 335h-53v-157h53v157zM346 440h-52v-262h52v262zM425 388h-53v-210h53v210zM503 544h-52v-366h52v366zM581 440h-52v-262h52v262zM660 597h-52v-419h52v419zM660 675h-445v-52h445v52z" />
<glyph unicode="&#xe971;" glyph-name="roundedlastfm" horiz-adv-x="850" d="M634 858q43 0 81-16.5t66.5-45 45-66.5 16.5-81v-418q0-43-16.5-81.5t-45-67-66.5-45-81-16.5h-419q-43 0-81 16.5t-66.5 45-45 67-16.5 81.5v418q0 43 16.5 81t45 66.5 66.5 45 81 16.5h419zM566 301q40 0 67 23.5t27 58.5q0 34-17.5 51t-54.5 28q-27 9-44.5 16.5t-17.5 29.5q0 15 10.5 25t27.5 10q23 0 40-22l30 15q-23 41-68 41-35 0-55.5-19.5t-20.5-51.5 20.5-48.5 62.5-30.5q23-8 36-15.5t13-27.5-16-33.5-42-12.5q-27 1-38 14t-21 35l-16 36t-14.5 33-10.5 25.5-5 12.5q-18 42-51.5 64t-78.5 22q-29 0-54.5-11t-44.5-30-30-44.5-11-54.5 11-54.5 30-44.5 44.5-30 54.5-11q33 0 61 14t48 37l-18 42q-13-25-37-40t-54-15q-21 0-39.5 8t-32 22-21.5 32.5-8 39.5 8 39.5 21.5 32.5 32 22 39.5 8q32 0 57.5-17t36.5-44l44-102 6-11q14-32 35-49.5t58-17.5z" />
<glyph unicode="&#xe972;" glyph-name="roundedscribd" horiz-adv-x="850" d="M634 858q43 0 81-16.5t66.5-45 45-66.5 16.5-81v-418q0-43-16.5-81.5t-45-67-66.5-45-81-16.5h-419q-43 0-81 16.5t-66.5 45-45 67-16.5 81.5v418q0 43 16.5 81t45 66.5 66.5 45 81 16.5h419zM485 230q3 3 6 6.5t6 6.5q-14 25-14 52 0 25 9.5 45.5t26.5 34.5v3q-7 22-24 43-16 20-40 37-23 16-68 36-23 10-38 19t-25 17q-18 16-18 38 0 24 21 41 21 15 55 15 24 0 42-8-5-12-5-22 0-23 15.5-38.5t37.5-15.5 37 15.5 15 38.5q0 24-18 40-24 27-55 40-39 17-75 17-56 0-96-36-39-36-39-86 0-22 7-40 4-9 9-18.5t13-18.5q16-19 36-32 11-7 25-14.5t34-15.5q19-8 33-15t23-14q16-12 29-31 12-20 12-39 0-32-23-53t-56-21q-47 0-79 37 16 16 16 39t-15 38.5-37 15.5-37.5-15.5-15.5-38.5q0-8 3-14l-2-1q24-63 68-97 44-32 101-32t100 41zM573 233q26 0 43.5 18t17.5 44-17.5 44.5-43.5 18.5q-25 0-42.5-18.5t-17.5-44.5 17.5-44 42.5-18z" />
<glyph unicode="&#xe973;" glyph-name="roundeditunes" horiz-adv-x="850" d="M634 858q43 0 81-16.5t66.5-45 45-66.5 16.5-81v-418q0-43-16.5-81.5t-45-67-66.5-45-81-16.5h-419q-43 0-81 16.5t-66.5 45-45 67-16.5 81.5v418q0 43 16.5 81t45 66.5 66.5 45 81 16.5h419zM425 178q54 0 101.5 20.5t83 56 56 83.5 20.5 102-20.5 101.5-56 83-83 56-101.5 20.5-102-20.5-83.5-56-56-83-20.5-101.5 20.5-102 56-83.5 83.5-56 102-20.5zM425 675q48 0 91-18.5t75-50.5 50.5-74.5 18.5-91.5-18.5-92-50.5-75-75-50.5-91-18.5q-49 0-92 18.5t-75 50.5-50.5 75-18.5 92 18.5 91.5 50.5 74.5 75 50.5 92 18.5zM345 560h1v-180q0 2-8.5 2.5t-14.5-0.5q-19-2-31.5-17.5t-10.5-34.5q2-20 15.5-32t33.5-10q18 2 30 15.5t11 31.5h1v165l131 30v-125q0 2-8.5 2.5t-14.5-0.5q-19-2-31.5-17t-10.5-35q2-19 16-31t33-10q18 2 30 15.5t12 31.5v236z" />
<glyph unicode="&#xe974;" glyph-name="circlesquidoo" horiz-adv-x="850" d="M425 858q87 0 163-33t132.5-89.5 89.5-132.5 33-163-33-163-89.5-133-132.5-90-163-33-163 33-133 90-90 133-33 163 33 163 90 132.5 133 89.5 163 33zM524 204q25 0 51 14t46.5 37.5 31 55 5.5 67.5-22 57-37.5 32-41 14.5-32.5 4.5q-25 1-21 23.5t25 58.5q7 13 9 29t-2.5 30.5-14.5 27-26 18.5h-54q14 0 25.5-12t19.5-27 2.5-31-15.5-29q-12-16-30-30-1 8-7 24t-19.5 35-35 38-53.5 32h-42q-3 0-6 1t-7 1q16-16 33.5-27t31.5-19q16-9 24.5-25.5t12.5-33.5q4-19 5-40-13 0-28 4-14 3-31.5 8.5t-38.5 14.5q-16 7-25 18.5t-14.5 25-9 28.5-8.5 30q-8-6-14-13t-11-15q3-8 5.5-17.5t5.5-20.5q9-38 30.5-64t44.5-43q26-19 58-31-26-6-52-10-22-4-45-6.5t-40-0.5q-6 1-12 3.5t-6 6.5v-55q29-8 66-6t72 4q27 1 37-9.5t12.5-26 2.5-34.5 7-36q19-47 54.5-64t83.5-17zM554 442q18-6 31-18.5t20-29 7.5-35.5-6.5-38-20-34-29-24-34-11.5-36 3.5-31 18-20 28.5-8 35.5 6 39q7 19 20 34t29 24 34.5 11.5 36.5-3.5zM542 305q17 0 28.5 12.5t11.5 30.5q0 15-8.5 26.5t-22.5 15.5q-3-15-12-21-6-5-15-5.5t-18 0.5q-3-8-3-16 0-18 11-30.5t28-12.5z" />
<glyph unicode="&#xe975;" glyph-name="circlespotify" horiz-adv-x="850" d="M425 858q87 0 163-33t132.5-89.5 89.5-132.5 33-163-33-163-89.5-133-132.5-90-163-33-163 33-133 90-90 133-33 163 33 163 90 132.5 133 89.5 163 33zM194 637q-14-9-14-24 0-12 8.5-20.5t20.5-8.5q2 0 3 0.5t3 0.5q48 19 98.5 29t104.5 10 104.5-10 97.5-29q2 0 3.5-0.5t3.5-0.5q12 0 20 8.5t8 20.5q0 18-16 24-51 20-106.5 31t-114.5 11q-60 0-116-11t-108-31zM418 532q48 0 93.5-10t87.5-28q2 0 2.5-0.5t2.5-0.5q5 0 9 2.5t7 5.5l3 12q0 9-6 14-46 20-95.5 31t-103.5 11-103.5-11-95.5-31q-7-7-7-14l4-11q5-8 15-8 5 0 7 1 85 37 180 37zM591 416q4 8 0 15.5t-10 9.5q-37 19-78 27.5t-85 8.5q-89 0-166-37-3-2-7-7.5t0-15.5q4-11 10-12t10 1q73 34 153 34 40 0 77-8.5t72-23.5q17-8 24 8zM617 200q20 0 37.5 7.5t31.5 19.5q-18 35-45 64t-60.5 49.5-72.5 32-81 11.5q-44 0-84-12t-74.5-34-61.5-53-44-68q25-17 55-17h64q25 34 62.5 54t82.5 20 83-20 62-54h45z" />
<glyph unicode="&#xe976;" glyph-name="circlesmugmug" horiz-adv-x="850" d="M425 858q87 0 163-33t132.5-89.5 89.5-132.5 33-163-33-163-89.5-133-132.5-90-163-33-163 33-133 90-90 133-33 163 33 163 90 132.5 133 89.5 163 33zM560 650q-20 0-33.5-10.5t-13.5-25.5q0-14 13.5-24.5t33.5-10.5 33.5 10.5 13.5 24.5q0 15-13.5 25.5t-33.5 10.5zM348 650q-20 0-34-10.5t-14-25.5q0-14 14-24.5t34-10.5 33.5 10.5 13.5 24.5q0 15-13.5 25.5t-33.5 10.5zM398 178q52 0 93.5 19t73.5 48.5 55 65 37.5 68 21.5 57.5 7 34q0 13-5.5 20.5t-12.5 11.5q-8 4-17 6h-403q-3-1-7-4-3-3-7.5-8t-8.5-14q-22-44-27-96.5t13.5-99 63.5-77.5 123-31zM265 284q-12 20-17 43.5t-4 47.5 7.5 46 15.5 40h370q-3-12-11-34t-21.5-48-32.5-53.5-44.5-50-58-36.5-71.5-14q-17 0-35.5 2.5t-36.5 9-34 18-27 29.5z" />
<glyph unicode="&#xe977;" glyph-name="roundedpicasa" horiz-adv-x="850" d="M634 858q43 0 81-16.5t66.5-45 45-66.5 16.5-81v-418q0-43-16.5-81.5t-45-67-66.5-45-81-16.5h-419q-43 0-81 16.5t-66.5 45-45 67-16.5 81.5v418q0 43 16.5 81t45 66.5 66.5 45 81 16.5h419zM422 701q-45 0-90-17 2-2 17-15t37-32.5 47-42 46.5-42 35.5-33.5 14-16v175q-20 11-49 17t-58 6zM163 439q0-35 10-68 2 2 19.5 17.5t42.5 39 54.5 50 54.5 49.5 42 38.5 18 16.5q-2 1-17 15t-33 30.5-33 30-16 14.5q-66-34-104-96t-38-137zM294 441q-29-27-53-48-20-18-37-34t-18-17q16-39 42.5-71.5t65.5-55.5v226zM448 178q69 7 125 43t86 114h-339v-135q38-17 80-22h48zM671 361q8 20 10.5 40t2.5 42q0 69-34.5 126.5t-94.5 93.5v-302h116z" />
<glyph unicode="&#xe978;" glyph-name="roundedforrst" horiz-adv-x="850" d="M634 858q43 0 81-16.5t66.5-45 45-66.5 16.5-81v-418q0-43-16.5-81.5t-45-67-66.5-45-81-16.5h-419q-43 0-81 16.5t-66.5 45-45 67-16.5 81.5v418q0 43 16.5 81t45 66.5 66.5 45 81 16.5h419zM640 204l-215 471-216-471h194v107l-65 22v21l65-21v85h43v-42l43 21v-21l-43-22v-43l86 43v-21l-86-43v-86h194z" />
<glyph unicode="&#xe979;" glyph-name="circleretweet" horiz-adv-x="850" d="M425 859q87 0 163-33t132.5-89.5 89.5-132.5 33-163-33-163-89.5-133-132.5-90-163-33-163 33-133 90-90 133-33 163 33 163 90 132.5 133 89.5 163 33zM503 284l-78 78h-79v105h79l-131 131-131-131h79v-157q0-10 8-18t18-8h235zM686 415h-78v160q0 11-8 17t-19 6h-235l79-79h78v-104h-78l130-131z" />
<glyph unicode="&#xe97a;" glyph-name="circlepodcast" horiz-adv-x="850" d="M425 859q87 0 163-33t132.5-89.5 89.5-132.5 33-163-33-163-89.5-133-132.5-90-163-33-163 33-133 90-90 133-33 163 33 163 90 132.5 133 89.5 163 33zM424 205q32 0 54.5 28t22.5 84q0 28-6.5 43t-17 22-24.5 8-29 1-29-1-24.5-8-17-22-6.5-43q0-56 22.5-84t54.5-28zM372 449q0-20 15-34.5t37-14.5 37 14.5 15 34.5-15 34-37 14-37-14-15-34zM589 422q0 2 0.5 4.5t0.5 4.5q0 32-13 62t-35.5 53.5-52.5 37.5-64 14q-35 0-65-14t-53-37.5-36-53.5-13-62q0-2 0.5-4.5t0.5-4.5q2 30 15.5 53t36 38.5 52 23.5 62.5 8 62-8 51-23.5 35.5-38.5 15.5-53zM685 431q0 51-20.5 95.5t-56 77.5-83 52.5-101.5 19.5-101.5-19.5-83-52.5-56-77.5-20.5-95.5v-10q2 49 23 87t56.5 63.5 82 39 99.5 13.5 99.5-13.5 81.5-39 56.5-63.5 23.5-87v10z" />
<glyph unicode="&#xe97b;" glyph-name="stackoverflow" horiz-adv-x="850" d="M529 411v-235h-314v235h-52v-288h418v288h-52zM640 536l-89 190 48 22 88-190-47-22zM578 488l-129 165 41 32 129-165-41-32zM528 427l-162 132 33 40 162-131-33-41zM494 357l-188 91 23 47 188-91-23-47zM476 280l-203 47 11 51 204-47-12-51zM476 202h-209v52h209v-52z" />
<glyph unicode="&#xe97c;" glyph-name="circlebehance" horiz-adv-x="850" d="M562 467q19 0 31-12 6-6 9.5-13t4.5-27h-90q2 20 5.5 26.5t8.5 12.5q12 13 31 13zM347 479q-6-4-13.5-8t-17.5-4h-48v79h41q11 0 19-2.5t15-4.5q15-8 15-31 0-22-11-29zM346 413q9-5 13.5-11.5t4.5-18.5q0-30-19-40-11-6-29-6h-48v78h49q10 0 17 0.5t12-2.5zM425 860q87 0 163-33t133-89.5 90-133 33-163.5-33-163-90-133-133-90-163-33-163.5 33-133 90-89.5 133-33 163 33 163.5 89.5 133 133 89.5 163.5 33zM412 329q13 22 13 50 0 26-11 46-12 19-34 28 14 7 22 18 14 17 14 46 0 28-14 48-21 33-74 33h-139v-314h130q11 0 21 1t19 3q18 4 33 16 13 12 20 25zM503 546h105v52h-105v-52zM660 389v18t-0.5 14-0.5 11q-4 25-16 44-7 12-15.5 20t-18.5 13q-22 11-47 11-43 0-71-31-27-30-27-88 0-61 30-89 29-26 70-26 48 0 74 34 9 10 13.5 19t6.5 24h-53q-2-15-5-15.5t-6-2.5q-5-5-12.5-9t-16.5-4q-16 0-28 9-10 7-15 17.5t-6 30.5h144z" />
<glyph unicode="&#xe97d;" glyph-name="roundedreddit" horiz-adv-x="850" d="M561 575q-15 0-26 11t-11 27q0 15 11 26t26 11 25.5-11 10.5-26q0-16-10.5-27t-25.5-11zM240 485q-35-27-50-64-15 13-15 31 0 17 12.5 29t29.5 12q13 0 23-8zM407 503q40 0 76-10.5t62.5-28 42-41.5 15.5-51-15.5-50.5-42-41.5-62.5-28-76-10q-41 0-76.5 10t-62 28-42 41.5-15.5 50.5 15.5 51 42 41.5 62 28 76.5 10.5zM299 411q0-12 8.5-21t20.5-9q13 0 21.5 9t8.5 21q0 13-8.5 22t-21.5 9q-12 0-20.5-9t-8.5-22zM505 307q9 9 0 18t-18 0-29-15-48-6q-29 0-48 6-20 6-29 15t-18 0 0-18q14-15 40-22 26-8 55-8t55 8q25 7 40 22zM492 381q13 0 21.5 9t8.5 21q0 13-8.5 22t-21.5 9q-12 0-20.5-9t-8.5-22q0-12 8.5-21t20.5-9zM605 493q18 0 30-12t12-29q0-24-21-35-13 36-48 65 11 11 27 11zM634 858q43 0 81-16.5t66.5-45 45-66.5 16.5-81v-418q0-43-16.5-81.5t-45-67-66.5-45-81-16.5h-419q-43 0-81 16.5t-66.5 45-45 67-16.5 81.5v418q0 43 16.5 81t45 66.5 66.5 45 81 16.5h419zM633 392q17 8 28 24t11 36q0 28-19.5 47.5t-47.5 19.5q-14 0-26.5-6t-21.5-15q-28 17-62.5 27.5t-73.5 12.5l13 92 65-15v-2q0-27 18-45.5t44-18.5 43.5 18.5 17.5 45.5q0 26-17.5 44.5t-43.5 18.5q-20 0-35-11t-22-28l-77 18q-4 1-9-2-4-2-4-7l-16-108q-39-1-73.5-11t-62.5-27q-19 19-45 19-28 0-47.5-19.5t-19.5-47.5q0-18 9-33t23-24q-3-11-3-23 0-35 18-65t49-52.5 72.5-35.5 88.5-13 88.5 13 72.5 35.5 49 52.5 18 65q0 5-0.5 10t-1.5 10z" />
<glyph unicode="&#xe97e;" glyph-name="circlegowalla" horiz-adv-x="850" d="M277 280v-18.5t-2-20.5q-1-1-3-2t-7-1q-16 0-16 13 0 11 7.5 21t20.5 21v-13zM398 295q-7-10-22-13h-7l1 2q5 11 13.5 15.5t13.5 4.5h2q2-5-1-9zM425 858q87 0 163-33t132.5-89.5 89.5-132.5 33-163-33-163-89.5-133-132.5-90-163-33-163 33-133 90-90 133-33 163 33 163 90 132.5 133 89.5 163 33zM679 220q5 11 7 26-5 5-9.5 8.5t-9.5 8.5q-5 4-8.5 7t-7.5 7q0 6-1 12l-2 12q-19 97-84.5 151t-185.5 74v5q3 22 6.5 48t4 50-3 45-13.5 34q-11 15-31 17h-4q-17 0-34-13t-28-55q-10 8-22 14t-26 6q-19 0-38-12-18-10-20-33 0-16 9.5-34t24-35.5 32-33.5 32.5-28q-12-8-28-21.5t-32-29-28-33-15-34.5q-5-26 10-45 15-17 39-17 8 0 20 3t27.5 12.5 33.5 27.5 38 47q4-14 2-30t-19-29l-11-7q-33-24-56-44.5t-23-49.5q0-17 11-27.5t29-10.5q11 0 21.5 4.5t13.5 14.5q5 15 5 32 7-2 15.5-3t17.5-3q-4-22-4-49.5t7-53.5h25q-8 23-8 51.5t4 50.5q8-1 18 1 27 5 39 24 8 14 3 30-5 17-25 17-12 0-26.5-8.5t-22.5-25.5q-2-3-3-5.5t-3-6.5q-9 1-17.5 2.5t-15.5 3.5q-8 2-15 3l-15 3q8 7 18 14t21 15l11 8q16 12 23 27.5t7 31-4 30-9 23.5l-9 19-12-18q-21-35-39.5-54.5t-33-29.5-25-12.5-14.5-2.5q-13 0-20 9-7 7-5 23 3 15 16 31.5t30 32.5 34 28.5 27 19.5l16 11-16 10q-17 12-35 28t-32.5 33-24 32.5-9.5 26.5q0 9 7 13 20 12 35.5 6.5t33.5-22.5q-2-15-2.5-26t-0.5-15q0-19 10-36t30-17q6 0 14 3 11 5 14.5 11t4.5 11q6 27-33 66l-11 11q2 10 5 21.5t8.5 21.5 12.5 16 17 5q10-2 14-8 7-10 9.5-28.5t1.5-41-4-46-6-41.5l-4-30 12-2q119-17 181.5-66.5t80.5-140.5q-4 2-7 3l-6 2q-16 5-35.5 8.5t-39.5 3.5q-66 0-89-47-13-26-16.5-56t3.5-55h25q-7 21-4.5 48.5t14.5 51.5q15 33 67 33 18 0 36.5-3.5t32.5-7.5q10-3 22-13-1-29-13.5-47t-27.5-28-27.5-13.5-13.5-3.5l-26-5 14-12h41q23 9 46 30.5t29 59.5q1 0 1-0.5t1-0.5q7-6 13.5-12.5t14.5-11.5zM292 605q16-17 20.5-27.5t3.5-13.5q0-2-4-4-2 0-3-0.5t-2-0.5q-7 0-11 9t-4 19v18z" />
<glyph unicode="&#xe97f;" glyph-name="circlemyspace" horiz-adv-x="850" d="M424 859q87 0 163-33t133-89.5 90-132.5 33-163-33-163-90-133-133-90-163-33-163 33-132.5 90-89.5 133-33 163 33 163 89.5 132.5 132.5 89.5 163 33zM506 676q-29 0-50-20.5t-21-49.5 21-50 50-21 49.5 21 20.5 50-20.5 49.5-49.5 20.5zM369 660q-23 0-38.5-16t-15.5-38q0-23 15.5-39t38.5-16 38.5 16 15.5 39q0 22-15.5 38t-38.5 16zM265 647q-17 0-29-12t-12-29 12-29.5 29-12.5 29 12.5 12 29.5-12 29-29 12zM607 412q0 20-8 37.5t-21.5 30.5-31.5 20.5-38 7.5-37.5-7.5-30.5-20.5q-7 23-26 38t-44 15q-17 0-31.5-7t-24.5-18q-4 16-17.5 26.5t-31.5 10.5q-20 0-35-14.5t-15-35.5v-80h79v-79h104v-104h209v180z" />
<glyph unicode="&#xe980;" glyph-name="circleaboutme" horiz-adv-x="850" d="M591 522q27 0 45-21 12-15 13-40h-118q1 27 18 44 19 17 42 17zM425 861q87 0 163.5-33t133.5-90 90-133.5 33-163.5-33-163.5-90-133.5-133.5-90-163.5-33-163.5 33-133.5 90-90 133.5-33 163.5 33 163.5 90 133.5 133.5 90 163.5 33zM450 480q0 37-17 53-17 18-49 18-39 0-65-37-6 18-21 27-17 10-39 10t-38-10q-17-9-27-24v29h-32v-209h36v108q0 29 6 44 6 16 19 23 13 8 28 8 20 0 29-12 8-13 8-35v-136h36v121q0 32 15 47t38 15q12 0 21-6 8-6 13-15 3-9 3-30v-132h36v143zM687 442q0 51-27 80t-69 29q-43 0-72-29-27-30-27-82t27-80 74-28q37 0 61 18 23 17 32 49l-37 5q-7-21-22-33-13-10-34-10-28 0-44 18-19 20-20 53h158v10z" />
<glyph unicode="&#xe981;" glyph-name="roundedpaypal" horiz-adv-x="850" d="M492 551q-9-20-28-34.5t-40-14.5h-2l11 49h59zM634 858q43 0 81-16.5t66.5-45 45-66.5 16.5-81v-418q0-43-16.5-81.5t-45-67-66.5-45-81-16.5h-419q-43 0-81 16.5t-66.5 45-45 67-16.5 81.5v418q0 43 16.5 81t45 66.5 66.5 45 81 16.5h419zM316 279l31 124h90q32 0 61.5 10.5t53 29.5 40 46 23.5 60q8 37 0 65.5t-25.5 47.5-41.5 28.5-48 9.5h-215l-96-421h127zM656 492q8 35 1 60t-22 43q8-16 9.5-35t-3.5-44q-7-33-23.5-61.5t-40-49.5-53-32.5-61.5-11.5h-91l-30-132h-107l-5-25h127l30 133h91q32 0 61.5 11.5t53 32.5 40 49.5 23.5 61.5zM401 502h-36l27 124h62q21 0 33.5-16t10.5-38q-5 2-9 3t-9 1h-62z" />
<glyph unicode="&#xe982;" glyph-name="fivehundredpx" horiz-adv-x="850" d="M605 495q44 0 62.5-27t18.5-64q0-36-18.5-63.5t-62.5-27.5q-22 0-39 8t-29 19q-14 12-25 28-10-16-23-28-11-11-28.5-19t-41.5-8-39 7.5-23 16.5q-10 11-14 25-6-14-18-25-11-9-28.5-16.5t-46.5-7.5-46 12-26 27q-11 18-15 40h52q2-10 7-18 5-7 12.5-12.5t21.5-5.5q17 0 32 15t15 33-9.5 33.5-31.5 15.5q-11 0-18.5-4t-12.5-9q-6-5-10-12h-52l29 146h139v-48h-104l-12-55q5 5 13 9 7 3 16.5 6t23.5 3q20 0 33-7.5t21-16.5q10-11 15-24 4 15 14 27 8 10 23 18.5t39 8.5 41.5-9.5 28.5-20.5q13-13 23-30 11 17 25 30 12 11 29 20.5t39 9.5zM425 362q11 0 21.5 6.5t18.5 14.5q10 9 18 21-8 11-18 21-8 8-18.5 15t-21.5 7q-22 0-34.5-12.5t-12.5-30.5 12.5-30 34.5-12zM599 362q22 0 34 12t12 30-12 30.5-34 12.5q-11 0-21.5-7t-18.5-15q-10-10-18-21 8-12 18-21 8-8 18.5-14.5t21.5-6.5z" />
<glyph unicode="&#xe983;" glyph-name="circleblogger" horiz-adv-x="850" d="M369 502q-11 0-19.5 8t-8.5 20q0 11 8.5 19.5t19.5 8.5h83q12 0 20-8.5t8-19.5q0-12-8-20t-20-8h-83zM537 388q12 0 20-8t8-20q0-11-8-19.5t-20-8.5h-168q-11 0-19.5 8.5t-8.5 19.5q0 12 8.5 20t19.5 8h168zM424 857q87 0 163-33t132.5-89.5 89.5-132.5 33-162q0-87-33-163t-89.5-132.5-132.5-89-163-32.5q-86 0-162 32.5t-132.5 89-89.5 132.5-33 163q0 86 33 162t89.5 132.5 132.5 89.5 162 33zM688 478l-1 6-4 9-7 5q-3 3-11.5 3t-19 0.5-20 1.5-13.5 5q-6 6-8 16t-4 24q-2 13-3.5 21t-3 13-3 8.5-3.5 8.5q-8 16-21.5 30t-29.5 24.5-33 17-31 8.5h-104q-31 0-58-11.5t-47.5-31.5-32-47-11.5-58v-173q0-30 11.5-57t32-47.5 47.5-32 58-11.5h170q31 0 58 11.5t47 32 32 47.5 12 57z" />
<glyph unicode="&#xe984;" glyph-name="roundedflickr" horiz-adv-x="850" d="M634 858q43 0 81-16.5t66.5-45 45-66.5 16.5-81v-418q0-43-16.5-81.5t-45-67-66.5-45-81-16.5h-419q-43 0-81 16.5t-66.5 45-45 67-16.5 81.5v418q0 43 16.5 81t45 66.5 66.5 45 81 16.5h419zM294 335q22 0 41 8t33 22.5 22 33.5 8 41q0 44-30 74t-74 30q-22 0-41-8t-33.5-22-22.5-33-8-41 8-41 22.5-33.5 33.5-22.5 41-8zM555 335q22 0 41 8t33 22.5 22.5 33.5 8.5 41-8.5 41-22.5 33-33 22-41 8q-21 0-40-8t-33.5-22-22.5-33-8-41 8-41 22.5-33.5 33.5-22.5 40-8z" />
<glyph unicode="&#xe985;" glyph-name="roundedmrwong" horiz-adv-x="850" d="M634 858q43 0 81-16.5t66.5-45 45-66.5 16.5-81v-418q0-43-16.5-81.5t-45-67-66.5-45-81-16.5h-419q-43 0-81 16.5t-66.5 45-45 67-16.5 81.5v418q0 43 16.5 81t45 66.5 66.5 45 81 16.5h419zM212 345q17 4 36.5 11t38 16 34 19.5 24.5 21.5q9 10 6.5 14t-10 3-18-4-17.5-6q-8-3-25-10t-35-15q-21-9-45-19-8-11-11-19-2-7 1.5-11.5t20.5-0.5zM566 244q2 30-1 48.5t-9 29.5-14.5 16.5-15.5 10.5q-9 5-29.5 7t-43.5 3q0 20-0.5 37t-1.5 27q13 2 19 4 22 6 31.5 24.5t11.5 38.5v40q18 1 30.5 1h17.5q6 0 14.5 0.5t16 2 12 4 4.5 7.5q-1 10-10 12t-23 4q-5 0-22 0.5t-40 0.5q0 15-1 30.5t-1.5 29-2 23.5-3.5 14q-7 14-16 7t-9-17v-87h-96q1 20 2 38t2 29q3 26-3.5 35t-14.5 11-12-7-6-20q-1-5-1.5-30t1.5-55q-23 0-48 0.5t-39-1.5q-6 0-10-5t-5.5-11-0.5-11.5 6-6.5q3-1 13.5-1h24.5t30 1 31 1q1-18 3-34.5t4-28.5q5-22 23-31.5t38-11.5q0-11 0.5-27.5t0.5-36.5h-34q-31-1-51.5-16.5t-25.5-31.5q-3-8-4.5-20t-2.5-24q-1-14 0-29-1-17 4-25t10.5-8 10 8 3.5 24q-3 42 11 63t26 23q5 1 20 1h33v-61t-1-36q0-9 4.5-13t10.5-3 11 7.5 5 19.5q0 10 0.5 33.5t-0.5 51.5q15 0 27.5-0.5t19.5-0.5q18-1 26.5-19t9.5-61q0-19 4.5-28t9.5-8.5 9.5 10.5 6.5 28zM623 366q6-1 12.5-3t12-2.5 9 1.5 3.5 9q-1 7-9.5 13.5t-21 12.5-27.5 12-29 12q-29 12-41 12t-16-11q-2-7 0.5-11.5t8-7.5 11.5-4.5l10-2.5t14-5.5 22-10 23.5-9.5 17.5-5zM479 485q0-10-8.5-16.5t-21-9-26-1.5-22.5 7q-9 5-12.5 23t-4.5 41q16 0 42.5 0.5t53.5 0.5v-27t-1-18z" />
</font>
</defs>
</svg>
